Статистика раздачи
Размер:  1,37 GB   |    Зарегистрирован:  1 месяц 4 дня   |    Скачан:  0 раз
Сидов:  106  [  0 KB/s  ]   Личеров:  7  [  0 KB/s  ]  
 
   
 
 

krek ®

Пол:
Не указан
Стаж:
2 месяца 7 дней
Сообщений:
176

Дом на продажу / The Open House
Год выхода: 2018
Выпущено: США / Netflix
Жанр: ужасы, триллер
Продолжительность: 01:34:58-Перевод: Профессиональный (многоголосый закадровый) | Jaskier
Субтитры: нет
Оригинальная аудиодорожка: нет-Режиссер: Мэтт Энджел / Matt Angel, Сюзанна Кут / Suzanne Coote-В ролях: Дилан Миннетт, Пирси Далтон, Шариф Аткинс, Патрисия Бетун, Мэтт Энджел, Сьюзен Кут, Аарон Абрамс-О фильме: Подросток Логан переезжает вместе с матерью Наоми в небольшой городок в живописном местечке вдали от шумных мегаполисов. Все идет как задумано, семья привыкает к изменениям и заводит друзей, но внезапно герои начинают замечать происходящие странности.-Качество: WEBRip
Формат: AVI
Видео: 720x304 (2.35:1), 23.976 fps, XviD build 73 ~1669 kbps avg, 0.318 bit/pixel
Аудио 1: AC3 | 48 KHz | 5.1 (Front: L С R Side: L R) + LFE | ~384 kbps [RUS]- -

MediaInfo

Код:Общее
Полное имя : D:\Яскъер\The.Open.House.2018.WEBRip.Jaskier.avi
Формат : AVI
Формат/Информация : Audio Video Interleave
Размер файла : 1,37 Гбайт
Продолжительность : 1 ч. 34 м.
Общий поток : 2062 Кбит/сек
Программа кодирования : VirtualDubMod 1.5.10.3 | www.virtualdub-fr.org || (build 2550/release)
Библиотека кодирования : VirtualDubMod build 2550/release
Видео
Идентификатор : 0
Формат : MPEG-4 Visual
Профиль формата : Advanced Simple@L5
Настройки формата : BVOP1 / Custom Matrix
Параметр BVOP формата : 1
Параметр QPel формата : Нет
Параметр GMC формата : Без точки перехода
Параметр матрицы формата : Выборочная
Идентификатор кодека : XVID
Идентификатор кодека/Подсказка : XviD
Продолжительность : 1 ч. 34 м.
Битрейт : 1669 Кбит/сек
Ширина : 720 пикселей
Высота : 304 пикселя
Соотношение сторон : 2,35:1
Частота кадров : 23,976 (24000/1001) кадра/сек
Цветовое пространство : YUV
Субдискретизация насыщенности : 4:2:0
Битовая глубина : 8 бит
Тип развёртки : Прогрессивная
Метод сжатия : С потерями
Бит/(Пиксели*Кадры) : 0.318
Размер потока : 1,11 Гбайт (81%)
Библиотека кодирования : XviD 73
Аудио
Идентификатор : 1
Формат : AC-3
Формат/Информация : Audio Coding 3
Идентификатор кодека : 2000
Продолжительность : 1 ч. 34 м.
Вид битрейта : Постоянный
Битрейт : 384 Кбит/сек
Каналы : 6 каналов
Расположение каналов : Front: L C R, Side: L R, LFE
Частота : 48,0 КГц
Частота кадров : 31,250 кадров/сек (1536 SPF)
Битовая глубина : 16 бит
Метод сжатия : С потерями
Размер потока : 261 Мбайт (19%)
Выравнивание : Разделение по промежуткам
Продолжительность промежутка : 42 мс. (1,00 видеокадр)
Время предзагрузки промежутка : 500 мс.
ServiceKind/String : Complete Main

Скриншоты

[cybertorrent.ru].t41096.torrent 
Торрент: Зарегистрирован [ 2018-03-17 18:55 ] · E9B4D3B4AA5D2F71E3696F08C6F9CDABB2452637

Скачать .torrent

Скачать

14 KB

Статус: проверено
Скачан: 0 раз
Размер: 1,37 GB
Профиль [ЛС]
Показать сообщения:    

Текущее время: 22-Апр 15:53

Часовой пояс: UTC ± 0



Вы не можете начинать темы
Вы не можете отвечать на сообщения
Вы не можете редактировать свои сообщения
Вы не можете удалять свои сообщения
Вы не можете голосовать в опросах
Вы не можете прикреплять файлы к сообщениям
Вы можете скачивать файлы