Статистика раздачи
Размер:  499 MB   |    Зарегистрирован:  1 месяц 6 дней   |    Скачан:  0 раз

Полного источника не было: Никогда

 
   
 
 

toper ®

Пол:
Не указан
Стаж:
2 месяца 8 дней
Сообщений:
284

Пожизненный приговор / Life Sentence
Год выпуска: 2018
Страна: США
Жанр: Драма, комедия
Продолжительность: 00:45:00
Перевод: Профессиональный (двухголосый закадровый) [Gears Media]
Режиссёр: Тесса Блейк, Норман Бакли, Джон Т. Кречмер
В ролях: Люси Хейл, Эллиот Найт, Брук Лайонс, Райли Смит, Джиллиан Вигмэн, Шеннон Чан-Кент, Надеж К Бэйли, Карлос ПенаВега, Джэйсон Блэр
Описание: Последние 8 лет Стелла Эбботт жила так, словно каждый её день мог стать последним. И в общем, так оно и было: девушка была смертельно больна. Но однажды происходит настоящее чудо — Стелла узнаёт, что она здорова. После схлынувшей эйфории девушка понимает, что теперь ей предстоит найти своё место в жизни, которую она строила последние несколько лет без оглядки на последствия.
Ссылка на предыдущие и альтернативные раздачи: http://cybertorrent.ru/tracker.php?nm=Life+Sentence
Сэмпл: http://multi-up.com/1190866
Качество: WEB-DLRip
Формат: AVI
Видео: XviD, 720x400 at 23.976 fps, ~1400 kbps avg
Аудио1: Russian, MP3, 48 kHz, 2 ch, 128 kbps
Аудио2: English, MP3, 48 kHz, 2 ch, 128 kbps
Субтитры: нет
Реклама: аудио (два раза, в начале и конце, по 12 сек.)

MediaInfo

Format : AVI
Format/Info : Audio Video Interleave
File size : 499 MiB
Duration : 42 min 22 s
Overall bit rate : 1 645 kb/s
Writing application : Lavf56.30.100
Video
ID : 0
Format : xvid
Codec ID : xvid
Duration : 42 min 22 s
Bit rate : 1 368 kb/s
Width : 720 pixels
Height : 400 pixels
Display aspect ratio : 16:9
Frame rate : 23.976 (24000/1001) FPS
Scan type : Progressive
Bits/(Pixel*Frame) : 0.198
Stream size : 415 MiB (83%)
Audio #1
ID : 1
Format : MPEG Audio
Format version : Version 1
Format profile : Layer 3
Mode : Joint stereo
Mode extension : MS Stereo
Codec ID : 55
Codec ID/Hint : MP3
Duration : 42 min 22 s
Bit rate mode : Constant
Bit rate : 128 kb/s
Channel(s) : 2 channels
Sampling rate : 48.0 kHz
Compression mode : Lossy
Stream size : 38.8 MiB (8%)
Alignment : Aligned on interleaves
Interleave, duration : 24 ms (0.58 video frame)
Interleave, preload duratio : 24 ms
Title : Gears Media
Audio #2
ID : 2
Format : MPEG Audio
Format version : Version 1
Format profile : Layer 3
Mode : Joint stereo
Mode extension : MS Stereo
Codec ID : 55
Codec ID/Hint : MP3
Duration : 42 min 22 s
Bit rate mode : Constant
Bit rate : 128 kb/s
Channel(s) : 2 channels
Sampling rate : 48.0 kHz
Compression mode : Lossy
Stream size : 38.8 MiB (8%)
Alignment : Aligned on interleaves
Interleave, duration : 24 ms (0.58 video frame)
Interleave, preload duratio : 24 ms
Writing library : LAME3.99.

Скриншоты

Внимание! Раздача ведётся путём добавления новых серий

Внимание! Раздача ведётся путём добавления новых серий; при каждом добавлении создаётся новый торрент. Чтобы начать докачку новой серии, пользователям необходимо сделать следующее:
(1) остановить скачивание,
(2) удалить старый торрент у себя из клиента (старые серии удалять не надо),
(3) скачать новый торрент и запустить его у себя в клиенте вместо старого, при этом указать клиенту путь в старую папку куда и должно происходить скачивание новых серий.
Ваш клиент при этом должен произвести хеширование (проверку) старой папки (если не производит сам - помогите ему сделать это), и будет докачивать только те серии которых у вас ещё нет. Старые серии при этом не удаляются, а продолжают раздаваться!
Eсли вы уже удалили старые серии, то предотвратить повторную закачку старых серий можно, отжав галочку в соответствующих местах при запуске нового торрента. По возможности, желательно не удалять старые серии как можно дольше чтобы релизёр не столько продолжал раздавать старые серии, а смог сконцентрироваться на новых.
[cybertorrent.ru].t41100.torrent 
Торрент: Зарегистрирован [ 2018-03-17 18:55 ] · 93DE64F7EEF10B908CD71266F72BBE8FBB95281E

Скачать .torrent

Скачать

20 KB

Статус: проверено
Скачан: 0 раз
Размер: 499 MB
Профиль [ЛС]
Показать сообщения:    

Текущее время: 24-Апр 13:58

Часовой пояс: UTC ± 0



Вы не можете начинать темы
Вы не можете отвечать на сообщения
Вы не можете редактировать свои сообщения
Вы не можете удалять свои сообщения
Вы не можете голосовать в опросах
Вы не можете прикреплять файлы к сообщениям
Вы можете скачивать файлы