Статистика раздачи
Размер:  288 MB   |    Зарегистрирован:  1 месяц 5 дней   |    Скачан:  0 раз

Полного источника не было: Никогда

 
   
 
 

Катюшка ®

Пол:
Не указан
Стаж:
2 месяца 7 дней
Сообщений:
288

Lizard / Troche Zolci, Troche Wiecej Bieli
Жанр: Progressive Rock / Eclectic Prog
Носитель: CD
Страна-производитель диска (релиза): Poland
Год издания: 2016
Издатель (лейбл): Audio Cave
Номер по каталогу: ACD-008-2016
Страна исполнителя (группы): Poland
Аудиокодек: FLAC (*.flac)
Тип рипа: tracks+.cue
Битрейт аудио: lossless
Продолжительность: 37:00
Источник (релизер): veushka
Наличие сканов в содержимом раздачи: да
Треклист:
1. Pejzaż z Brunatnym Horyzontem #1 (3:03)
2. Pejzaż z Brunatnym Horyzontem #2 (3:26)
Dychotomia serca i głowy (6:25):
3. Trwoga i Delikatny Przebłysk Samokontroli Cz.1 (2:05)
4. Ziemniak Umiera Sam? Nigdy! (1:02)
5. Trwoga i Delikatny Przebłysk Samokontroli Cz.2 (3:18)
Bez Litości i Difenbachia Okrucieństwa (7:92):
6. Zdradzeni o Świcie, Czyli Szepty oraz Spora Dawka Jaszczurczego Uderzenia Cz.1 (3:46)
7. Podobno Ptaków W Lesie Coraz Mniej (3:24)
8. Zdradzeni o Świcie, Czyli Szepty oraz Spora Dawka Jaszczurczego Uderzenia Cz.2 (1:21)
O Słowach Co z Książek do Głowy a z Głowy do Książek Spłynęły (11:07):
9. Dziwaczne Taktowanie Przerywane Niespodziewanym Nadejściem Chwili Relaksu (4:54)
10. Raz w Pewnym Mieście Gdzieś Cz.1 (4:18)
11. Rozdział Trzeci (Udanie Wtrącony Fragment Większej Całości) (1:55)
12. Raz w Pewnym Mieście Gdzieś Cz.2 (1:43)
13. Pejzaż z Brunatnym Horyzontem #3 (2:38)

Лог создания рипа

Exact Audio Copy V1.0 beta 3 from 29. August 2011
EAC extraction logfile from 25. February 2018, 23:24
Lizard / Troche zolci, troche wiecej bieli
Used drive : HL-DT-STDVDRAM GH24NSB0 Adapter: 3 ID: 0
Read mode : Secure
Utilize accurate stream : Yes
Defeat audio cache : Yes
Make use of C2 pointers : No
Read offset correction : 6
Overread into Lead-In and Lead-Out : No
Fill up missing offset samples with silence : Yes
Delete leading and trailing silent blocks : No
Null samples used in CRC calculations : Yes
Used interface : Native Win32 interface for Win NT & 2000
Gap handling : Appended to previous track
Used output format : User Defined Encoder
Selected bitrate : 128 kBit/s
Quality : High
Add ID3 tag : No
Command line compressor : C:\Program Files\Exact Audio Copy\FLAC\FLAC.EXE
Additional command line options : -8 -V -T "ARTIST=%artist%" -T "TITLE=%title%" -T "ALBUM=%albumtitle%" -T "DATE=%year%" -T "TRACKNUMBER=%tracknr%" -T "TOTALTRACKS=%numtracks%" -T "GENRE=%genre%" -T "ALBUMARTIST=%albumartist%" -T "ALBUM ARTIST=%albumartist%" -T "COMMENT=EAC Secure Mode, Test & Copy, AccurateRip, FLAC -8" %source%
TOC of the extracted CD
Track | Start | Length | Start sector | End sector
---------------------------------------------------------
1 | 0:00.00 | 3:03.69 | 0 | 13793
2 | 3:03.69 | 3:26.25 | 13794 | 29268
3 | 6:30.19 | 2:05.66 | 29269 | 38709
4 | 8:36.10 | 1:02.58 | 38710 | 43417
5 | 9:38.68 | 3:18.32 | 43418 | 58299
6 | 12:57.25 | 3:46.47 | 58300 | 75296
7 | 16:43.72 | 3:24.24 | 75297 | 90620
8 | 20:08.21 | 1:21.18 | 90621 | 96713
9 | 21:29.39 | 4:54.12 | 96714 | 118775
10 | 26:23.51 | 4:18.32 | 118776 | 138157
11 | 30:42.08 | 1:55.09 | 138158 | 146791
12 | 32:37.17 | 1:44.15 | 146792 | 154606
13 | 34:21.32 | 2:38.43 | 154607 | 166499
Track 1
Filename G:\Veushka\Lizard - Troche zolci, troche wiecej bieli (2016) {ACD-008-2016}\01 - Pejzaz z brunatnym horyzontem #1.wav
Pre-gap length 0:00:02.00
Peak level 80.5 %
Extraction speed 0.9 X
Track quality 99.9 %
Test CRC A089D7E8
Copy CRC A089D7E8
Cannot be verified as accurate (confidence 3) [C723E0B9], AccurateRip returned [DC156D3D] (AR v2)
Copy OK
Track 2
Filename G:\Veushka\Lizard - Troche zolci, troche wiecej bieli (2016) {ACD-008-2016}\02 - Pejzaz z brunatnym horyzontem #2.wav
Peak level 96.6 %
Extraction speed 1.1 X
Track quality 100.0 %
Test CRC D60F72C1
Copy CRC D60F72C1
Cannot be verified as accurate (confidence 3) [8A25B484], AccurateRip returned [3E478D45] (AR v2)
Copy OK
Track 3
Filename G:\Veushka\Lizard - Troche zolci, troche wiecej bieli (2016) {ACD-008-2016}\03 - Dychotomia serca i glowy.wav
Peak level 96.6 %
Extraction speed 1.1 X
Track quality 100.0 %
Test CRC 457AE83A
Copy CRC 457AE83A
Cannot be verified as accurate (confidence 3) [234DD0C3], AccurateRip returned [A1E43D14] (AR v2)
Copy OK
Track 4
Filename G:\Veushka\Lizard - Troche zolci, troche wiecej bieli (2016) {ACD-008-2016}\04 - Dychotomia serca i glowy.wav
Peak level 96.6 %
Extraction speed 0.9 X
Track quality 100.0 %
Test CRC 91129B2E
Copy CRC 91129B2E
Cannot be verified as accurate (confidence 3) [6296DE8E], AccurateRip returned [01C6979F] (AR v2)
Copy OK
Track 5
Filename G:\Veushka\Lizard - Troche zolci, troche wiecej bieli (2016) {ACD-008-2016}\05 - Dychotomia serca i glowy.wav
Peak level 96.6 %
Extraction speed 1.3 X
Track quality 100.0 %
Test CRC B6A3E6DF
Copy CRC B6A3E6DF
Cannot be verified as accurate (confidence 3) [37B59CB9], AccurateRip returned [43FE17F0] (AR v2)
Copy OK
Track 6
Filename G:\Veushka\Lizard - Troche zolci, troche wiecej bieli (2016) {ACD-008-2016}\06 - Bez litosci i difenbachia okrucienstwa.wav
Peak level 96.6 %
Extraction speed 1.4 X
Track quality 100.0 %
Test CRC EFD35B6F
Copy CRC EFD35B6F
Cannot be verified as accurate (confidence 3) [3BDD9D4F], AccurateRip returned [DAFD7EB1] (AR v2)
Copy OK
Track 7
Filename G:\Veushka\Lizard - Troche zolci, troche wiecej bieli (2016) {ACD-008-2016}\07 - Bez litosci i difenbachia okrucienstwa.wav
Peak level 96.6 %
Extraction speed 1.5 X
Track quality 100.0 %
Test CRC 09A46125
Copy CRC 09A46125
Cannot be verified as accurate (confidence 3) [01A00486], AccurateRip returned [6EA44475] (AR v2)
Copy OK
Track 8
Filename G:\Veushka\Lizard - Troche zolci, troche wiecej bieli (2016) {ACD-008-2016}\08 - Bez litosci i difenbachia okrucienstwa.wav
Peak level 96.6 %
Extraction speed 1.2 X
Track quality 100.0 %
Test CRC 96DFA815
Copy CRC 96DFA815
Cannot be verified as accurate (confidence 3) [EE5EA0BE], AccurateRip returned [9DE6EF4F] (AR v2)
Copy OK
Track 9
Filename G:\Veushka\Lizard - Troche zolci, troche wiecej bieli (2016) {ACD-008-2016}\09 - O slowach, co z ksiazek do glowy.wav
Peak level 96.6 %
Extraction speed 1.5 X
Track quality 99.9 %
Test CRC AA77D097
Copy CRC AA77D097
Cannot be verified as accurate (confidence 3) [A50436BC], AccurateRip returned [2675FFA7] (AR v2)
Copy OK
Track 10
Filename G:\Veushka\Lizard - Troche zolci, troche wiecej bieli (2016) {ACD-008-2016}\10 - O slowach, co z ksiazek do glowy.wav
Peak level 96.6 %
Extraction speed 1.7 X
Track quality 100.0 %
Test CRC DCB9C5D4
Copy CRC DCB9C5D4
Cannot be verified as accurate (confidence 3) [23282A1B], AccurateRip returned [3A5C6E78] (AR v2)
Copy OK
Track 11
Filename G:\Veushka\Lizard - Troche zolci, troche wiecej bieli (2016) {ACD-008-2016}\11 - O slowach, co z ksiazek do glowy.wav
Peak level 96.6 %
Extraction speed 1.5 X
Track quality 100.0 %
Test CRC F4120F64
Copy CRC F4120F64
Cannot be verified as accurate (confidence 3) [43306033], AccurateRip returned [1B8DE74E] (AR v2)
Copy OK
Track 12
Filename G:\Veushka\Lizard - Troche zolci, troche wiecej bieli (2016) {ACD-008-2016}\12 - O slowach, co z ksiazek do glowy.wav
Peak level 61.7 %
Extraction speed 1.5 X
Track quality 100.0 %
Test CRC E42CBFC3
Copy CRC E42CBFC3
Cannot be verified as accurate (confidence 3) [C5A2E099], AccurateRip returned [DB433A23] (AR v2)
Copy OK
Track 13
Filename G:\Veushka\Lizard - Troche zolci, troche wiecej bieli (2016) {ACD-008-2016}\13 - Pejzaz z brunatnym horyzontem #3.wav
Peak level 96.6 %
Extraction speed 1.7 X
Track quality 100.0 %
Test CRC 182F0D05
Copy CRC 182F0D05
Cannot be verified as accurate (confidence 3) [5BE0E881], AccurateRip returned [CB010329] (AR v2)
Copy OK
No tracks could be verified as accurate
You may have a different pressing from the one(s) in the database
No errors occurred
End of status report
---- CUETools DB Plugin V2.1.3
[CTDB TOCID: MsFjPagZYLrJat4VbouTWrkD6Ps-] found, Submit result: already submitted
[ade4464b] (14/14) Accurately ripped
==== Log checksum C68670D7ED320D5628F1C08CAA8541D7E816167614475CC75A796F1E3D1A12AF ====

Содержание индексной карты (.CUE)

REM DISCID AE08AC0D
REM COMMENT "ExactAudioCopy v1.0b3"
PERFORMER "Lizard"
TITLE "Troche zolci, troche wiecej bieli"
FILE "01 - Pejzaz z brunatnym horyzontem #1.wav" WAVE
TRACK 01 AUDIO
TITLE "Pejzaz z brunatnym horyzontem #1"
PERFORMER "Lizard"
INDEX 01 00:00:00
FILE "02 - Pejzaz z brunatnym horyzontem #2.wav" WAVE
TRACK 02 AUDIO
TITLE "Pejzaz z brunatnym horyzontem #2"
PERFORMER "Lizard"
INDEX 01 00:00:00
FILE "03 - Dychotomia serca i glowy.wav" WAVE
TRACK 03 AUDIO
TITLE "Dychotomia serca i glowy"
PERFORMER "Lizard"
INDEX 01 00:00:00
FILE "04 - Dychotomia serca i glowy.wav" WAVE
TRACK 04 AUDIO
TITLE "Dychotomia serca i glowy"
PERFORMER "Lizard"
INDEX 01 00:00:00
FILE "05 - Dychotomia serca i glowy.wav" WAVE
TRACK 05 AUDIO
TITLE "Dychotomia serca i glowy"
PERFORMER "Lizard"
INDEX 01 00:00:00
FILE "06 - Bez litosci i difenbachia okrucienstwa.wav" WAVE
TRACK 06 AUDIO
TITLE "Bez litosci i difenbachia okrucienstwa"
PERFORMER "Lizard"
INDEX 01 00:00:00
FILE "07 - Bez litosci i difenbachia okrucienstwa.wav" WAVE
TRACK 07 AUDIO
TITLE "Bez litosci i difenbachia okrucienstwa"
PERFORMER "Lizard"
INDEX 01 00:00:00
FILE "08 - Bez litosci i difenbachia okrucienstwa.wav" WAVE
TRACK 08 AUDIO
TITLE "Bez litosci i difenbachia okrucienstwa"
PERFORMER "Lizard"
INDEX 01 00:00:00
FILE "09 - O slowach, co z ksiazek do glowy.wav" WAVE
TRACK 09 AUDIO
TITLE "O slowach, co z ksiazek do glowy "
PERFORMER "Lizard"
INDEX 01 00:00:00
FILE "10 - O slowach, co z ksiazek do glowy.wav" WAVE
TRACK 10 AUDIO
TITLE "O slowach, co z ksiazek do glowy"
PERFORMER "Lizard"
INDEX 01 00:00:00
FILE "11 - O slowach, co z ksiazek do glowy.wav" WAVE
TRACK 11 AUDIO
TITLE "O slowach, co z ksiazek do glowy"
PERFORMER "Lizard"
INDEX 01 00:00:00
FILE "12 - O slowach, co z ksiazek do glowy.wav" WAVE
TRACK 12 AUDIO
TITLE "O slowach, co z ksiazek do glowy"
PERFORMER "Lizard"
INDEX 01 00:00:00
FILE "13 - Pejzaz z brunatnym horyzontem #3.wav" WAVE
TRACK 13 AUDIO
TITLE "Pejzaz z brunatnym horyzontem #3"
PERFORMER "Lizard"
INDEX 01 00:00:00

Об альбоме (сборнике)

http://www.progarchives.com/album.asp?id=52629

Состав

- Damian Bydliński / vocals, guitars
- Janusz Tanistra / bass
- Daniel Kurtyka / guitars
- Paweł Fabrowicz / keyboards
- Mariusz Szulakowski / drums, percussion
Guest starring:
- Andrzej Jancza / keyboards
- Bartosz Dąbrowski / trumpet
- Marcin Żupański / saxophone
- Marcin Piekło / classic guitar
[cybertorrent.ru].t41123.torrent 
Торрент: Зарегистрирован [ 2018-03-17 18:55 ] · F94D74E4889A6E860686996F7CAC7C127885D079

Скачать .torrent

Скачать

13 KB

Статус: проверено
Скачан: 0 раз
Размер: 288 MB
Профиль [ЛС]
Показать сообщения:    

Текущее время: 22-Апр 23:50

Часовой пояс: UTC ± 0



Вы не можете начинать темы
Вы не можете отвечать на сообщения
Вы не можете редактировать свои сообщения
Вы не можете удалять свои сообщения
Вы не можете голосовать в опросах
Вы не можете прикреплять файлы к сообщениям
Вы можете скачивать файлы