Статистика раздачи
Размер:  2,07 GB   |    Зарегистрирован:  1 месяц 6 дней   |    Скачан:  0 раз

Полного источника не было: Никогда

 
   
 
 

Виктория ®

Пол:
Не указан
Стаж:
2 месяца 9 дней
Сообщений:
398

Убить пересмешника / To kill a mockingbird
Страна: США
Жанр: драма, детектив
Год выпуска: 1962
Продолжительность: 02:09:10
Перевод: Авторский (одноголосый закадровый) Юрий Живов
Субтитры: нет
Режиссер: Роберт Маллиган / Robert Mulligan
В ролях: Грегори Пек, Мэри Бэдам, Филлип Элфорд, Фрэнк Овертон, Брок Питерс, Джеймс Андерсон, Джон Меджна, Коллин Уилкокс Пэкстон, Роберт Дювалл
Описание: Честный и благородный адвокат Аттикус Финч берётся за заведомо проигрышное дело: белая молодая женщина Мэйелла обвиняет чернокожего мужчину Тома Робинсона в изнасиловании. Том невиновен, но общество настроено против афроамериканца и готово поверить любому вымыслу. Суд проходит с постоянным давлением извне. Страдает не только Аттикус, но и его дети: младшая дочка Джин и старший сын Джим, которых юрист воспитывает в одиночку. Глядя на старания отца и несправедливость, творящуюся вокруг, они по иному начинают воспринимать действительность и в определённой степени разочаровываются в судебной системе. Отец Мэйеллы, Боб Юэлл, несёт в себе дополнительную угрозу: во время процесса его репутация (и без того не безупречная) рушится на глазах из-за доказанных фактов лжи. Его месть выливается на тех, кого легче всего победить – детей Финча. Но помощь приходит откуда не ждали, ещё раз доказывая, что мир небезнадёжен...
Доп. информация: Выражаю огромную благодарность Нордеру за синхронизацию звуковой дорожки.

Сэмпл: http://multi-up.com/1190869
Качество видео: BDRip (Исходник BDRemux 1080p)
Формат видео: AVI
Видео: XviD 73, 720x384, (1,85:1), 23,976 fps, 1835 Кбит/с, 8 бит, 0.28 bit/pixel
Аудио: Русский (АС3, 6 ch (Front: L C R, Side: L R, LFE), 48,0 KHz, 448 Kbps)

MediaInfo

Общее
Полное имя : H:\Фильмы на трекер\Убить пересмешника (драма, детектив 1962 год).avi
Формат : AVI
Формат/Информация : Audio Video Interleave
Профиль формата : OpenDML
Размер файла : 2,07 Гбайт
Продолжительность : 2 ч. 9 м.
Общий поток : 2295 Кбит/сек
Программа кодирования : VirtualDubMod 1.5.10.2 (build 2540/release)
Библиотека кодирования : VirtualDubMod build 2540/release
Видео
Идентификатор : 0
Формат : MPEG-4 Visual
Профиль формата : Advanced Simple@L5
Параметр BVOP формата : 2
Параметр QPel формата : Нет
Параметр GMC формата : Без точки перехода
Параметр матрицы формата : Выборочная
Идентификатор кодека : XVID
Идентификатор кодека/Подсказка : XviD
Продолжительность : 2 ч. 9 м.
Битрейт : 1835 Кбит/сек
Ширина : 720 пикселей
Высота : 384 пикселя
Соотношение сторон : 1,85:1
Частота кадров : 23,976 (23976/1000) кадра/сек
Цветовое пространство : YUV
Субдискретизация насыщенности : 4:2:0
Битовая глубина : 8 бит
Тип развёртки : Прогрессивная
Метод сжатия : С потерями
Бит/(Пиксели*Кадры) : 0.277
Размер потока : 1,66 Гбайт (80%)
Библиотека кодирования : XviD 73
Аудио
Идентификатор : 1
Формат : AC-3
Формат/Информация : Audio Coding 3
Расширение режима : CM (complete main)
Параметр Endianness формата : Big
Идентификатор кодека : 2000
Продолжительность : 2 ч. 9 м.
Вид битрейта : Постоянный
Битрейт : 448 Кбит/сек
Каналы : 6 каналов
Расположение каналов : Front: L C R, Side: L R, LFE
Частота : 48,0 КГц
Частота кадров : 31,250 кадров/сек (1536 spf)
Метод сжатия : С потерями
Размер потока : 414 Мбайт (20%)
Выравнивание : Разделение по промежуткам
Продолжительность промежутка : 42 мс. (1,00 видеокадр)
Время предзагрузки промежутка : 500 мс.

Скриншот c названием фильма

Скриншоты

[cybertorrent.ru].t41126.torrent 
Торрент: Зарегистрирован [ 2018-03-17 18:55 ] · EFC635FBC5DD5E4FEA14161625F6F42E48DAFE1D

Скачать .torrent

Скачать

11 KB

Статус: проверено
Скачан: 0 раз
Размер: 2,07 GB
Профиль [ЛС]
Показать сообщения:    

Текущее время: 24-Апр 18:21

Часовой пояс: UTC ± 0



Вы не можете начинать темы
Вы не можете отвечать на сообщения
Вы не можете редактировать свои сообщения
Вы не можете удалять свои сообщения
Вы не можете голосовать в опросах
Вы не можете прикреплять файлы к сообщениям
Вы можете скачивать файлы