Статистика раздачи
Размер:  282 MB   |    Зарегистрирован:  2 месяца 5 дней   |    Скачан:  0 раз

Полного источника не было: Никогда

 
   
 
 

Azazavr ®

Пол:
Не указан
Стаж:
3 месяца 5 дней
Сообщений:
61

FurYenS / Barback Attack
Жанр: Thrash Metal
Носитель: CD
Год издания: 2014
Издатель (лейбл): Self-Release
Страна исполнителя (группы): France
Аудиокодек: FLAC (*.flac)
Тип рипа: image+.cue
Битрейт аудио: lossless
Продолжительность: 00:39:19
Источник (релизер): мой рип
Наличие сканов в содержимом раздачи: да
Треклист:
01. Chaining 01:14
02. Through The Stormland 03:42
03. Wrath Of War 03:37
04. Omega 03:40
05. Personal Sphere 06:14
06. No Hope In This Lie 03:43
07. Doomsday Phobia 04:34
08. All The Dead Attack 03:50
09. Never Give Up 03:33
10. Corrupted Leaders 05:12

Лог создания рипа

Exact Audio Copy V1.1 from 23. June 2015
Отчёт EAC об извлечении, выполненном 23. декабря 2017, 8:04
FurYenS / Barback Attack
Дисковод: HL-DT-STDVDRAM GTA0N Adapter: 1 ID: 0
Режим чтения : Достоверность
Использование точного потока : Да
Отключение кэша аудио : Да
Использование указателей C2 : Нет
Коррекция смещения при чтении : 102
Способность читать области Lead-in и Lead-out : Нет
Заполнение пропущенных сэмплов тишиной : Да
Удаление блоков с тишиной в начале и конце : Нет
При вычислениях CRC использовались нулевые сэмплы : Да
Интерфейс : Встроенный Win32-интерфейс для Win NT/2000
Выходной формат : Пользовательский кодировщик
Выбранный битрейт : 768 kBit/s
Качество : Высокий
Добавление ID3-тега : Нет
Утилита сжатия : C:\Program Files (x86)\Exact Audio Copy\FLAC\FLAC.EXE
Дополнительные параметры : -V -8 -T "Date=%year%" -T "Genre=%genre%" %source%
TOC извлечённого CD
Трек | Старт | Длительность | Начальный сектор | Конечный сектор
---------------------------------------------------------------------
1 | 0:00.00 | 1:14.15 | 0 | 5564
2 | 1:14.15 | 3:42.00 | 5565 | 22214
3 | 4:56.15 | 3:37.31 | 22215 | 38520
4 | 8:33.46 | 3:39.64 | 38521 | 55009
5 | 12:13.35 | 6:14.00 | 55010 | 83059
6 | 18:27.35 | 3:42.73 | 83060 | 99782
7 | 22:10.33 | 4:33.55 | 99783 | 120312
8 | 26:44.13 | 3:49.50 | 120313 | 137537
9 | 30:33.63 | 3:32.43 | 137538 | 153480
10 | 34:06.31 | 5:12.19 | 153481 | 176899
Характеристики диапазона извлечения и сообщения об ошибках
Выбранный диапазон
Имя файла C:\Users\магазин\Music\FurYenS - Barback Attack.wav
Пиковый уровень 100.0 %
Скорость извлечения 3.1 X
Качество диапазона 99.9 %
CRC теста 32F9E593
CRC копии 32F9E593
Копирование... OK
Ошибок не произошло
AccurateRip: сводка
Трек 1 отсутствует в базе данных
Трек 2 отсутствует в базе данных
Трек 3 отсутствует в базе данных
Трек 4 отсутствует в базе данных
Трек 5 отсутствует в базе данных
Трек 6 отсутствует в базе данных
Трек 7 отсутствует в базе данных
Трек 8 отсутствует в базе данных
Трек 9 отсутствует в базе данных
Трек 10 отсутствует в базе данных
Ни одного трека нет в базе AccurateRip
Конец отчёта
---- CUETools DB Plugin V2.1.6
[CTDB TOCID: XjqvWLsJDGWsxCu3qKlC4f.wEV4-] found
Submit result: XjqvWLsJDGWsxCu3qKlC4f.wEV4- has been confirmed
Track | CTDB Status
1 | (1/1) Accurately ripped
2 | (1/1) Accurately ripped
3 | (1/1) Accurately ripped
4 | (1/1) Accurately ripped
5 | (1/1) Accurately ripped
6 | (1/1) Accurately ripped
7 | (1/1) Accurately ripped
8 | (1/1) Accurately ripped
9 | (1/1) Accurately ripped
10 | (1/1) Accurately ripped
[cybertorrent.ru].t41131.torrent 
Торрент: Зарегистрирован [ 2018-03-17 18:55 ] · 5D57FE3ECEDDBC2DBE6CDE72247F61B3AC1AF333

Скачать .torrent

Скачать

12 KB

Статус: проверено
Скачан: 0 раз
Размер: 282 MB
Профиль [ЛС]
Показать сообщения:    

Текущее время: 23-Май 18:34

Часовой пояс: UTC ± 0



Вы не можете начинать темы
Вы не можете отвечать на сообщения
Вы не можете редактировать свои сообщения
Вы не можете удалять свои сообщения
Вы не можете голосовать в опросах
Вы не можете прикреплять файлы к сообщениям
Вы можете скачивать файлы