Статистика раздачи
Размер:  274 MB   |    Зарегистрирован:  1 месяц 5 дней   |    Скачан:  0 раз

Полного источника не было: Никогда

 
   
 
 

Zec_Tore ®

Пол:
Не указан
Стаж:
2 месяца 4 дня
Сообщений:
170

Владимир Кузьмин И Группа Динамик - Возьми С Собой
Жанр: Rock
Носитель: CD
Страна-производитель диска (релиза): RU (Unofficial Release)
Год издания: 2015
Издатель (лейбл): AVA Records
Номер по каталогу: A95011
Страна исполнителя (группы): RU
Аудиокодек: FLAC (*.flac)
Тип рипа: image+.cue
Битрейт аудио: lossless
Продолжительность: 00:43:51
Источник (релизер): Sket4er
Наличие сканов в содержимом раздачи: да
Треклист:
01. В Поисках Света
02. Голос
03. Кикимора
04. Мне Стены Говорят
05. Огонь (Обойдет Стороной Суета)
06. Еще Вчера
07. Динамик (Инструментал)
08. Пароход
09. Далеко Не Залетай
10. Сегодня В Нашем Клубе
11. Коломбина

Лог создания рипа

Exact Audio Copy V1.1 from 23. June 2015
EAC extraction logfile from 15. March 2018, 12:39
Владимир Кузьмин и группа "Динамик" / Возьми с собой
Used drive : TSSTcorpCDDVDW SH-224DB Adapter: 1 ID: 0
Read mode : Secure
Utilize accurate stream : Yes
Defeat audio cache : Yes
Make use of C2 pointers : No
Read offset correction : 6
Overread into Lead-In and Lead-Out : No
Fill up missing offset samples with silence : Yes
Delete leading and trailing silent blocks : No
Null samples used in CRC calculations : Yes
Used interface : Native Win32 interface for Win NT & 2000
Used output format : User Defined Encoder
Selected bitrate : 1024 kBit/s
Quality : High
Add ID3 tag : No
Command line compressor : C:\Program Files (x86)\Exact Audio Copy\win64\flac.exe
Additional command line options : -8 -V -T "ARTIST=%artist%" -T "TITLE=%title%" -T "ALBUM=%albumtitle%" -T "DATE=%year%" -T "TRACKNUMBER=%tracknr%" -T "GENRE=%genre%" -T "COMMENT=%comment%" %source% -o %dest%
TOC of the extracted CD
Track | Start | Length | Start sector | End sector
---------------------------------------------------------
1 | 0:00.00 | 3:35.61 | 0 | 16185
2 | 3:35.61 | 3:27.21 | 16186 | 31731
3 | 7:03.07 | 5:18.06 | 31732 | 55587
4 | 12:21.13 | 3:32.27 | 55588 | 71514
5 | 15:53.40 | 6:38.10 | 71515 | 101374
6 | 22:31.50 | 3:05.31 | 101375 | 115280
7 | 25:37.06 | 1:16.66 | 115281 | 121046
8 | 26:53.72 | 5:13.48 | 121047 | 144569
9 | 32:07.45 | 4:36.60 | 144570 | 165329
10 | 36:44.30 | 4:36.67 | 165330 | 186096
11 | 41:21.22 | 2:29.41 | 186097 | 197312
Range status and errors
Selected range
Filename F:\Sket4er\Владимир Кузьмин и группа Динамик – Возьми с собой (1983) 2015\Владимир Кузьмин и группа ''Динамик'' - Возьми с собой.wav
Peak level 99.8 %
Extraction speed 3.0 X
Range quality 100.0 %
Test CRC 812A69E0
Copy CRC 812A69E0
Copy OK
No errors occurred
AccurateRip summary
Track 1 accurately ripped (confidence 1) [76CD40B0] (AR v1)
Track 2 not present in database
Track 3 not present in database
Track 4 not present in database
Track 5 not present in database
Track 6 not present in database
Track 7 not present in database
Track 8 not present in database
Track 9 not present in database
Track 10 not present in database
Track 11 not present in database
1 трек(и) скопированы точно
10 трек(и) не содержатся в базе AccurateRip
Some tracks could not be verified as accurate
End of status report
---- CUETools DB Plugin V2.1.6
[CTDB TOCID: FuLxAJcw24IupWTzxrCdS1r4ul8-] disk not present in database
Submit result: FuLxAJcw24IupWTzxrCdS1r4ul8- has been uploaded
==== Log checksum D7CC9180382DE7B07CA2168C5E3C8F49C82DEE9155C539145711963E0DAE90D6 ====

Содержание индексной карты (.CUE)

REM GENRE "Rock "
REM DATE 1983
REM DISCID 930A460B
REM COMMENT "ExactAudioCopy v1.1"
PERFORMER "Владимир Кузьмин и группа 'Динамик' "
TITLE "Возьми с собой"
FILE "Владимир Кузьмин и группа ''Динамик'' - Возьми с собой.flac" WAVE
TRACK 01 AUDIO
TITLE "В поисках света"
PERFORMER "Владимир Кузьмин и группа 'Динамик' "
FLAGS DCP
INDEX 01 00:00:00
TRACK 02 AUDIO
TITLE "Голос"
PERFORMER "Владимир Кузьмин и группа 'Динамик' "
FLAGS DCP
INDEX 01 03:35:61
TRACK 03 AUDIO
TITLE "Кикимора"
PERFORMER "Владимир Кузьмин и группа 'Динамик' "
FLAGS DCP
INDEX 01 07:03:07
TRACK 04 AUDIO
TITLE "Мне стены говорят"
PERFORMER "Владимир Кузьмин и группа 'Динамик' "
FLAGS DCP
INDEX 01 12:21:13
TRACK 05 AUDIO
TITLE "Огонь (Обойдет стороной суета)"
PERFORMER "Владимир Кузьмин и группа 'Динамик' "
FLAGS DCP
INDEX 01 15:53:40
TRACK 06 AUDIO
TITLE "Еще вчера"
PERFORMER "Владимир Кузьмин и группа 'Динамик' "
FLAGS DCP
INDEX 01 22:31:50
TRACK 07 AUDIO
TITLE "Динамик (Инструментал)"
PERFORMER "Владимир Кузьмин и группа 'Динамик' "
FLAGS DCP
INDEX 01 25:37:06
TRACK 08 AUDIO
TITLE "Пароход"
PERFORMER "Владимир Кузьмин и группа 'Динамик' "
FLAGS DCP
INDEX 01 26:53:72
TRACK 09 AUDIO
TITLE "Далеко не залетай"
PERFORMER "Владимир Кузьмин и группа 'Динамик' "
FLAGS DCP
INDEX 01 32:07:45
TRACK 10 AUDIO
TITLE "Сегодня в нашем клубе"
PERFORMER "Владимир Кузьмин и группа 'Динамик' "
FLAGS DCP
INDEX 01 36:44:30
TRACK 11 AUDIO
TITLE "Коломбина"
PERFORMER "Владимир Кузьмин и группа 'Динамик' "
FLAGS DCP
INDEX 01 41:21:22

Лог проверки качества

-----------------------
DON'T MODIFY THIS FILE
-----------------------
PERFORMER: auCDtect Task Manager, ver. 1.5.1RC4 build 1.5.1.5
Copyright (c) 2008-2010 y-soft. All rights reserved
http://y-soft.org
ANALYZER: auCDtect: CD records authenticity detector, version 0.8.2
Copyright (c) 2004 Oleg Berngardt. All rights reserved.
Copyright (c) 2004 Alexander Djourik. All rights reserved.
FILE: Владимир Кузьмин и группа ''Динамик'' - Возьми с собой.flac
Size: 282401708 Hash: 6AD190E22A4A5BFB129DF689DB734CC0 Accuracy: -m0
Conclusion: MPEG 95%
Signature: 3B57783A202B29665B6DD1F4A725101E99FF29A6

Замер динамического диапазона

foobar2000 1.3.9 / Замер динамического диапазона (DR) 1.1.1
Дата отчёта: 2018-03-15 12:26:41
--------------------------------------------------------------------------------
Анализ: Владимир Кузьмин и группа 'Динамик' / Возьми с собой
--------------------------------------------------------------------------------
DR Пики RMS Продолжительность трека
--------------------------------------------------------------------------------
DR10 -0.05 дБ -10.98 дБ 3:36 1-В поисках света
DR9 -0.02 дБ -10.97 дБ 3:27 2-Голос
DR10 -0.02 дБ -10.97 дБ 5:18 3-Кикимора
DR9 -0.03 дБ -10.99 дБ 3:32 4-Мне стены говорят
DR8 -0.01 дБ -10.98 дБ 6:38 5-Огонь (Обойдет стороной суета)
DR10 -0.03 дБ -10.99 дБ 3:05 6-Еще вчера
DR10 -0.07 дБ -11.09 дБ 1:17 7-Динамик (Инструментал)
DR9 -0.02 дБ -10.99 дБ 5:14 8-Пароход
DR10 -0.02 дБ -11.01 дБ 4:37 9-Далеко не залетай
DR10 -0.03 дБ -11.01 дБ 4:37 10-Сегодня в нашем клубе
DR10 -0.04 дБ -10.99 дБ 2:30 11-Коломбина
--------------------------------------------------------------------------------
Количество треков: 11
Реальные значения DR: DR10
Частота: 44100 Гц
Каналов: 2
Разрядность: 16
Битрейт: 859 кбит/с
Кодек: FLAC
================================================================================
Доп. информация

Состав

Владимир Кузьмин - Vocals, Guitar, Keyboards, Flute, Saxophone, Harmonica
Александр Кузьмин - Bass, Keyboards, Vocals
Сергей Евдоченко - Keyboards
Юрий Рогожин - Drums
Андрей Морозов - Guitar, Vocals
Геннадий Рябцев - Vocals

Об исполнителе (группе)

http://www.vladimirkuzmin.org
[cybertorrent.ru].t41163.torrent 
Торрент: Зарегистрирован [ 2018-03-17 18:55 ] · C6C665C156CBB2B7D39519E58AFC14F798538155

Скачать .torrent

Скачать

12 KB

Статус: проверено
Скачан: 0 раз
Размер: 274 MB
Профиль [ЛС]
Показать сообщения:    

Текущее время: 22-Апр 23:55

Часовой пояс: UTC ± 0



Вы не можете начинать темы
Вы не можете отвечать на сообщения
Вы не можете редактировать свои сообщения
Вы не можете удалять свои сообщения
Вы не можете голосовать в опросах
Вы не можете прикреплять файлы к сообщениям
Вы можете скачивать файлы