Статистика раздачи
Размер:  1,69 GB   |    Зарегистрирован:  6 месяцев 3 дня   |    Скачан:  0 раз

Полного источника не было: Никогда

 
   
 
 

Ласточка ®

Пол:
Не указан
Стаж:
7 месяцев 6 дней
Сообщений:
453

Финист - ясный сокол- Жанр: сказка
Год выпуска: 1975
Продолжительность: 01:14:46
Субтитры: русские, французские, английские-Режиссёр: Геннадий Васильев-В ролях:
Вячеслав Воскресенский, Светлана Орлова, Михаил Пуговкин, Людмила Хитяева, Георгий Милляр, Георгий Вицин, Михаил Кононов, Гликерия Богданова-Чеснокова, Мария Барабанова, Анна Строганова, Алексей Смирнов, Марк Перцовский, Лев Потемкин
Описание:
Жил да был на земле храбрый и добрый богатырь, по прозванию Финист - Ясный Сокол. Славился он своей силой, отвагой и отзывчивым сердцем. Но напал на русскую землю злой враг Картаус. И превратил он богатыря в чудище лесное, заколдовал с условием, что вновь станет Финист человеком, если полюбит его в облике чудища красна девица.-Сэмпл | Кинопоиск-Качество видео: DVDRip-AVC
Формат видео: MKV
Видео: x264 (High@L4.1); 716@1018x432 25.000 fps; Display aspect ratio: 2.357:1; 2684 Kbps
Аудио 1: AC-3; 16 bits 48 Khz; Mono 96 Kbps; CBR
Аудио 2: AC-3; 16 bits 48 Khz; 5.1ch 448 Kbps; CBR (отдельно)
Формат субтитров: softsub (SRT)

Исходник

Видеоряд с германца:
http://cybertorrent.ru/viewtopic.php?t=3203371
Звук, титры и главы подсинхронены с девятки Руссико. Нормализация диалогов оставлена как в исходнике: -29dB
http://cybertorrent.ru/viewtopic.php?t=361212

MediaInfo

x264 log

avs [info]: 716x432p 64:45 @ 25/1 fps (cfr)
x264 [info]: using SAR=64/45
x264 [info]: using cpu capabilities: MMX2 SSE2Fast SSSE3 SSE4.2
x264 [info]: profile High, level 4.1
x264 [info]: frame I:777 Avg QP:18.48 size: 53199
x264 [info]: frame P:27392 Avg QP:21.01 size: 24122
x264 [info]: frame B:83987 Avg QP:23.48 size: 9564
x264 [info]: consecutive B-frames: 3.0% 3.9% 9.5% 31.0% 19.7% 27.3% 3.6% 1.1% 0.6% 0.2% 0.1%
x264 [info]: mb I I16..4: 5.1% 77.8% 17.0%
x264 [info]: mb P I16..4: 0.2% 14.3% 2.2% P16..4: 34.9% 27.9% 19.0% 1.0% 0.2% skip: 0.2%
x264 [info]: mb B I16..4: 0.0% 1.5% 0.3% B16..8: 39.4% 17.7% 5.5% direct:13.6% skip:22.0% L0:37.1% L1:34.7% BI:28.1%
x264 [info]: 8x8 transform intra:83.7% inter:60.2%
x264 [info]: direct mvs spatial:98.5% temporal:1.5%
x264 [info]: coded y,uvDC,uvAC intra: 98.0% 78.9% 51.7% inter: 48.1% 31.0% 9.2%
x264 [info]: i16 v,h,dc,p: 12% 7% 38% 43%
x264 [info]: i8 v,h,dc,ddl,ddr,vr,hd,vl,hu: 15% 9% 8% 8% 13% 13% 11% 12% 12%
x264 [info]: i4 v,h,dc,ddl,ddr,vr,hd,vl,hu: 14% 8% 3% 8% 14% 16% 12% 13% 12%
x264 [info]: i8c dc,h,v,p: 35% 25% 24% 16%
x264 [info]: Weighted P-Frames: Y:34.5% UV:22.3%
x264 [info]: ref P L0: 40.0% 13.3% 14.5% 7.1% 5.1% 4.1% 3.3% 2.1% 1.8% 1.6% 1.5% 1.3% 1.2% 1.1% 1.1% 0.8%
x264 [info]: ref B L0: 80.2% 8.0% 3.2% 2.0% 1.4% 1.2% 0.9% 0.6% 0.5% 0.5% 0.4% 0.4% 0.3% 0.3% 0.1%
x264 [info]: ref B L1: 97.3% 2.7%
x264 [info]: kb/s:2684.29
-General
Unique ID : 245904863758598649508742393616848883182 (0xB8FF8DD6C406723A9F46BFEBFBDB8DEE)
Complete name : Финист - Ясный сокол.1975.mkv
Format : Matroska
Format version : Version 2
File size : 1.45 GiB
Duration : 1 h 14 min
Overall bit rate : 2 782 kb/s
Encoded date : UTC 2018-03-15 09:33:48
Writing application : mkvmerge v7.8.0 ('River Man') 32bit built on Mar 27 2015 16:18:02
Writing library : libebml v1.3.1 + libmatroska v1.4.2
Video
ID : 1
Format : AVC
Format/Info : Advanced Video Codec
Format profile : High@L4.1
Format settings, CABAC : Yes
Format settings, ReFrames : 16 frames
Codec ID : V_MPEG4/ISO/AVC
Duration : 1 h 14 min
Bit rate : 2 683 kb/s
Width : 716 pixels
Height : 432 pixels
Display aspect ratio : 2.35:1
Original display aspect rat : 2.35:1
Frame rate mode : Constant
Frame rate : 25.000 FPS
Color space : YUV
Chroma subsampling : 4:2:0
Bit depth : 8 bits
Scan type : Progressive
Bits/(Pixel*Frame) : 0.347
Stream size : 1.37 GiB (95%)
Title : Финист - Ясный сокол.1975
Writing library : x264 core 152 r2851kMod ba24899
Encoding settings : cabac=1 / ref=16 / deblock=1:-2:-2 / analyse=0x3:0x133 / me=umh / subme=10 / psy=1 / fade_compensate=0.00 / psy_rd=1.00:0.20 / mixed_ref=1 / me_range=24 / chroma_me=1 / trellis=2 / 8x8dct=1 / cqm=0 / deadzone=21,11 / fast_pskip=0 / chroma_qp_offset=-3 / threads=12 / lookahead_threads=3 / sliced_threads=0 / nr=0 / decimate=0 / interlaced=0 / bluray_compat=0 / constrained_intra=0 / bframes=10 / b_pyramid=2 / b_adapt=2 / b_bias=0 / direct=3 / weightb=1 / open_gop=0 / weightp=2 / keyint=250 / keyint_min=25 / scenecut=40 / intra_refresh=0 / rc_lookahead=60 / rc=2pass / mbtree=0 / bitrate=2683 / ratetol=1.0 / qcomp=0.60 / qpmin=0 / qpmax=69 / qpstep=4 / cplxblur=20.0 / qblur=0.5 / vbv_maxrate=62500 / vbv_bufsize=78125 / nal_hrd=none / filler=0 / ip_ratio=1.35 / pb_ratio=1.30 / aq=1:0.80
Language : Russian
Default : Yes
Forced : No
Color range : Limited
Color primaries : BT.601 PAL
Transfer characteristics : BT.470 System B, BT.470 System G
Matrix coefficients : BT.601
Audio
ID : 2
Format : AC-3
Format/Info : Audio Coding 3
Mode extension : CM (complete main)
Format settings, Endianness : Big
Codec ID : A_AC3
Duration : 1 h 14 min
Bit rate mode : Constant
Bit rate : 96.0 kb/s
Channel(s) : 1 channel
Channel positions : Front: C
Sampling rate : 48.0 kHz
Frame rate : 31.250 FPS (1536 spf)
Compression mode : Lossy
Stream size : 51.3 MiB (3%)
Title : AC-3; 16 bits 48 Khz; Mono 96 Kbps; CBR
Language : Russian
Default : Yes
Forced : No
Text #1
ID : 3
Format : UTF-8
Codec ID : S_TEXT/UTF8
Codec ID/Info : UTF-8 Plain Text
Title : Субтитры русские
Language : Russian
Default : No
Forced : No
Text #2
ID : 4
Format : UTF-8
Codec ID : S_TEXT/UTF8
Codec ID/Info : UTF-8 Plain Text
Title : Субтитры французские
Language : French
Default : No
Forced : No
Text #3
ID : 5
Format : UTF-8
Codec ID : S_TEXT/UTF8
Codec ID/Info : UTF-8 Plain Text
Title : Субтитры английские
Language : English
Default : No
Forced : No
Menu
00:00:00.000 : ru:За Русь!
00:06:33.120 : ru:Во дворце
00:08:08.440 : ru:Проделки Оборотня
00:17:05.080 : ru:Аленушка
00:18:42.360 : ru:Воевода и его войско
00:25:27.120 : ru:Иван Купала
00:29:33.080 : ru:Суп из топора
00:34:58.680 : ru:Желание
00:39:50.920 : ru:"Купец"
00:45:31.400 : ru:Чужеземцы
00:51:41.760 : ru:Чудище-Финист
00:54:22.920 : ru:Похищение
00:58:34.160 : ru:Тяжелый путь
01:02:40.160 : ru:На казнь
01:05:46.800 : ru:Спасение
01:11:39.440 : ru:Добро и зло
[cybertorrent.ru].t41164.torrent 
Торрент: Зарегистрирован [ 2018-03-17 18:55 ] · 691CC2478C320844E448C0EB9F35F648EF54FA7E

Скачать .torrent

Скачать

17 KB

Статус: проверено
Скачан: 0 раз
Размер: 1,69 GB
Профиль [ЛС]
Показать сообщения:    

Текущее время: 21-Сен 15:44

Часовой пояс: UTC ± 0



Вы не можете начинать темы
Вы не можете отвечать на сообщения
Вы не можете редактировать свои сообщения
Вы не можете удалять свои сообщения
Вы не можете голосовать в опросах
Вы не можете прикреплять файлы к сообщениям
Вы можете скачивать файлы
Torrents24.ru открытый BitTorrent Torrents24.pl открытый BitTorrent CyberTorrent.ru открытый BitTorrent BtList.ru рейтинг BitTorrent трекеров Яндекс.Метрика