Статистика раздачи
Размер:  284 MB   |    Зарегистрирован:  1 месяц 4 дня   |    Скачан:  0 раз

Полного источника не было: Никогда

 
   
 
 

norvil ®

Пол:
Не указан
Стаж:
2 месяца 7 дней
Сообщений:
185

Phillip Johnston Transparent Quartet - The Needless Kiss Жанр: Modern Creative, Avant-Garde Jazz
Носитель: CD
Год издания: 1998
Издатель (лейбл): Koch Jazz
Номер по каталогу: KOC CD 7898
Аудиокодек: FLAC (*.flac)
Тип рипа: tracks+.cue
Битрейт аудио: lossless
Продолжительность: 62:32
Источник (релизер): ruskaval
Наличие сканов в содержимом раздачи: да
Треклист:
01. Pipeline (3:02)
02. Memory (11:07)
03. Planetella Rock (4:26)
04. The Heyday (5:18)
05. All I Do Is Dream of You (3:24)
06. Hofstra's Dilemma (8:59)
07. Mazurka Op. 17, No. 4 (6:49)
08. The Sleepwalker (3:11)
09. The Needless Kiss (6:05)
10. The Club (4:19)
11. Regrets #17 (5:52)
 
The Transparent Quartet:
Phillip Johnston - soprano, alto saxophone
Joe Ruddick - piano, baritone saxophone
Mark Josefsberg - vibraphone
David Hofstra - bass
 

Несколько слов на английском

The Needless Kiss was the first CD by Phillip Johnston's Transparent Quartet, the drummerless quartet he formed in the late 1990s after leading The Microscopic Septet and Big Trouble. It was released in 1998 on Koch Jazz, but is now out-of-print, due to the corporate downsizing of that label. In addition to originals by Johnston and pianist Joe Ruddick, the group played distinctive arrangements of tunes by a variety of composers, for instance on this CD, Frederic Chopin & Raymond Scott.
From reviews of The Needless Kiss:
“Phillip Johnston is one of the most original and witty composers and bandleaders in jazz¬—as likely to give a sweet and heartfelt chamber jazz rendition of a Chopin mazurka as to one of Raymond Scott’s cartoon ditties.”
—The Boston Phoenix.
“The quartet members blend their disparate influences skillfully and their work, like Raymond Scott’s, abounds with eccentric humor and lyricism.”
—Harvey Pekar, Boston Herald.
“This odd, engaging, drummerless band mixes braininess with mirth—the longtime hallmarks of their leader, saxophonist Phillip Johnston.”
—Entertainment Weekly.
“The Needless Kiss, the latest recording by Johnston’s Transparent Quartet, is full of nineteen-fifties formalism (West Coast cool, Modern Jazz Quartet subtlety), which Johnston gleefully personalizes with sharp phrasings and free jazz tangents. It’s all held together by Johnston’s fine alto-saxophone work and superb soprano-saxophone playing, and by a drummerless unti that makes imaginative use of vibes, piano, baritone saxophone, and bass.”
—Steve Futterman, The New Yorker.
-

Лог создания рипа

Exact Audio Copy V1.3 from 2. September 2016
EAC extraction logfile from 28. July 2017, 23:46
Phillip Johnston's Transparent Quartet / The Needless Kiss
Used drive : PLEXTOR DVDR PX-891SAW Adapter: 0 ID: 0
Read mode : Secure
Utilize accurate stream : Yes
Defeat audio cache : Yes
Make use of C2 pointers : No
Read offset correction : 48
Overread into Lead-In and Lead-Out : No
Fill up missing offset samples with silence : Yes
Delete leading and trailing silent blocks : No
Null samples used in CRC calculations : Yes
Used interface : Installed external ASPI interface
Gap handling : Appended to previous track
Used output format : User Defined Encoder
Selected bitrate : 1024 kBit/s
Quality : High
Add ID3 tag : No
Command line compressor : C:\Program Files\eac-1.0beta4\Flac\flac.exe
Additional command line options : -8 -V -T "ARTIST=%artist%" -T "TITLE=%title%" -T "ALBUM=%albumtitle%" -T "DATE=%year%" -T "TRACKNUMBER=%tracknr%" -T "GENRE=%genre%" -T "PERFORMER=%albuminterpret%" -T "COMPOSER=%composer%" %haslyrics%--tag-from-file=LYRICS="%lyricsfile%"%haslyrics% -T "ALBUMARTIST=%albumartist%" -T "ALBUM ARTIST=%albumartist%" -T "DISCNUMBER=%cdnumber%" -T "TOTALDISCS=%totalcds%" -T "TOTALTRACKS=%numtracks%" -T "COMMENT=ivo" %source% -o %dest%
TOC of the extracted CD
Track | Start | Length | Start sector | End sector
---------------------------------------------------------
1 | 0:00.00 | 3:02.37 | 0 | 13686
2 | 3:02.37 | 11:07.00 | 13687 | 63711
3 | 14:09.37 | 4:26.25 | 63712 | 83686
4 | 18:35.62 | 5:18.23 | 83687 | 107559
5 | 23:54.10 | 3:24.02 | 107560 | 122861
6 | 27:18.12 | 8:58.50 | 122862 | 163261
7 | 36:16.62 | 6:48.50 | 163262 | 193911
8 | 43:05.37 | 3:10.63 | 193912 | 208224
9 | 46:16.25 | 6:05.12 | 208225 | 235611
10 | 52:21.37 | 4:19.18 | 235612 | 255054
11 | 56:40.55 | 5:51.45 | 255055 | 281424
Track 1
Filename F:\igor\eac\01 - Pipeline.wav
Pre-gap length 0:00:02.00
Peak level 100.0 %
Extraction speed 1.7 X
Track quality 100.0 %
Test CRC 7CF40DC5
Copy CRC 7CF40DC5
Accurately ripped (confidence 1) [6F2DFC82] (AR v2)
Copy OK
Track 2
Filename F:\igor\eac\02 - Memory.wav
Pre-gap length 0:00:02.16
Peak level 90.4 %
Extraction speed 4.8 X
Track quality 99.9 %
Test CRC C77EA923
Copy CRC C77EA923
Accurately ripped (confidence 1) [D59A710D] (AR v2)
Copy OK
Track 3
Filename F:\igor\eac\03 - Planetella Rock.wav
Pre-gap length 0:00:02.16
Peak level 100.0 %
Extraction speed 6.0 X
Track quality 100.0 %
Test CRC 3D162449
Copy CRC 3D162449
Accurately ripped (confidence 1) [98F70557] (AR v2)
Copy OK
Track 4
Filename F:\igor\eac\04 - The Heyday.wav
Pre-gap length 0:00:02.00
Peak level 100.0 %
Extraction speed 6.5 X
Track quality 100.0 %
Test CRC F3D913B8
Copy CRC F3D913B8
Accurately ripped (confidence 1) [E2B23241] (AR v2)
Copy OK
Track 5
Filename F:\igor\eac\05 - All I Do Is Dream of You.wav
Pre-gap length 0:00:03.60
Peak level 99.0 %
Extraction speed 6.5 X
Track quality 100.0 %
Test CRC 481654BA
Copy CRC 481654BA
Accurately ripped (confidence 1) [16AD9272] (AR v2)
Copy OK
Track 6
Filename F:\igor\eac\06 - Hofstra's Dilemma.wav
Pre-gap length 0:00:00.82
Peak level 97.5 %
Extraction speed 7.7 X
Track quality 100.0 %
Test CRC D509C5D3
Copy CRC D509C5D3
Accurately ripped (confidence 1) [A137617A] (AR v2)
Copy OK
Track 7
Filename F:\igor\eac\07 - Mazurka Op. 17, No. 4.wav
Pre-gap length 0:00:02.09
Peak level 97.9 %
Extraction speed 6.3 X
Track quality 99.9 %
Test CRC 5D5FB819
Copy CRC 5D5FB819
Accurately ripped (confidence 1) [FCA65E8F] (AR v2)
Copy OK
Track 8
Filename F:\igor\eac\08 - The Sleepwalker.wav
Pre-gap length 0:00:02.00
Peak level 99.4 %
Extraction speed 7.7 X
Track quality 100.0 %
Test CRC D960EDA4
Copy CRC D960EDA4
Accurately ripped (confidence 1) [82BE926B] (AR v2)
Copy OK
Track 9
Filename F:\igor\eac\09 - The Needless Kiss.wav
Pre-gap length 0:00:02.00
Peak level 91.4 %
Extraction speed 8.6 X
Track quality 100.0 %
Test CRC 85EC060D
Copy CRC 85EC060D
Accurately ripped (confidence 1) [A30209F2] (AR v2)
Copy OK
Track 10
Filename F:\igor\eac\10 - The Club.wav
Pre-gap length 0:00:02.33
Peak level 99.7 %
Extraction speed 8.6 X
Track quality 100.0 %
Test CRC E2799B6E
Copy CRC E2799B6E
Accurately ripped (confidence 1) [0C161B3C] (AR v2)
Copy OK
Track 11
Filename F:\igor\eac\11 - Regrets #17.wav
Pre-gap length 0:00:02.66
Peak level 100.0 %
Extraction speed 6.9 X
Track quality 99.9 %
Test CRC AC724F1B
Copy CRC AC724F1B
Accurately ripped (confidence 1) [574B7DE2] (AR v2)
Copy OK
All tracks accurately ripped
No errors occurred
End of status report
---- CUETools DB Plugin V2.1.6
[CTDB TOCID: AJD6br.2zzkfi5b6xcFePjYQVmA-] disk not present in database
Submit result: AJD6br.2zzkfi5b6xcFePjYQVmA- has been uploaded
==== Log checksum CFFDA48E2D58CC092C496BC0F6A03B8FF8800C49AD524F7CBAB049E6B7F116DC ====

Содержание индексной карты (.CUE)

REM GENRE Jazz
REM DATE 1998
REM DISCID 940EA80B
REM COMMENT "ExactAudioCopy v1.3"
PERFORMER "Phillip Johnston's Transparent Quartet"
TITLE "The Needless Kiss"
REM COMPOSER ""
FILE "01 - Pipeline.wav" WAVE
TRACK 01 AUDIO
TITLE "Pipeline"
PERFORMER "Phillip Johnston's Transparent Quartet"
REM COMPOSER ""
INDEX 01 00:00:00
TRACK 02 AUDIO
TITLE "Memory"
PERFORMER "Phillip Johnston's Transparent Quartet"
REM COMPOSER ""
INDEX 00 03:00:25
FILE "02 - Memory.wav" WAVE
INDEX 01 00:00:00
TRACK 03 AUDIO
TITLE "Planetella Rock"
PERFORMER "Phillip Johnston's Transparent Quartet"
REM COMPOSER ""
INDEX 00 11:04:63
FILE "03 - Planetella Rock.wav" WAVE
INDEX 01 00:00:00
TRACK 04 AUDIO
TITLE "The Heyday"
PERFORMER "Phillip Johnston's Transparent Quartet"
REM COMPOSER ""
INDEX 00 04:24:25
FILE "04 - The Heyday.wav" WAVE
INDEX 01 00:00:00
TRACK 05 AUDIO
TITLE "All I Do Is Dream of You"
PERFORMER "Phillip Johnston's Transparent Quartet"
REM COMPOSER ""
INDEX 00 05:14:53
FILE "05 - All I Do Is Dream of You.wav" WAVE
INDEX 01 00:00:00
TRACK 06 AUDIO
TITLE "Hofstra's Dilemma"
PERFORMER "Phillip Johnston's Transparent Quartet"
REM COMPOSER ""
INDEX 00 03:23:15
FILE "06 - Hofstra's Dilemma.wav" WAVE
INDEX 01 00:00:00
TRACK 07 AUDIO
TITLE "Mazurka Op. 17, No. 4"
PERFORMER "Phillip Johnston's Transparent Quartet"
REM COMPOSER ""
INDEX 00 08:56:43
FILE "07 - Mazurka Op. 17, No. 4.wav" WAVE
INDEX 01 00:00:00
TRACK 08 AUDIO
TITLE "The Sleepwalker"
PERFORMER "Phillip Johnston's Transparent Quartet"
REM COMPOSER ""
INDEX 00 06:46:50
FILE "08 - The Sleepwalker.wav" WAVE
INDEX 01 00:00:00
TRACK 09 AUDIO
TITLE "The Needless Kiss"
PERFORMER "Phillip Johnston's Transparent Quartet"
REM COMPOSER ""
INDEX 00 03:08:63
FILE "09 - The Needless Kiss.wav" WAVE
INDEX 01 00:00:00
TRACK 10 AUDIO
TITLE "The Club"
PERFORMER "Phillip Johnston's Transparent Quartet"
REM COMPOSER ""
INDEX 00 06:02:62
FILE "10 - The Club.wav" WAVE
INDEX 01 00:00:00
TRACK 11 AUDIO
TITLE "Regrets #17"
PERFORMER "Phillip Johnston's Transparent Quartet"
REM COMPOSER ""
INDEX 00 04:16:43
FILE "11 - Regrets #17.wav" WAVE
INDEX 01 00:00:00
[cybertorrent.ru].t41167.torrent 
Торрент: Зарегистрирован [ 2018-03-17 18:55 ] · BD1AF7965B861C4D57C349E8C76D6786146B0900

Скачать .torrent

Скачать

13 KB

Статус: проверено
Скачан: 0 раз
Размер: 284 MB
Профиль [ЛС]
Показать сообщения:    

Текущее время: 22-Апр 15:59

Часовой пояс: UTC ± 0



Вы не можете начинать темы
Вы не можете отвечать на сообщения
Вы не можете редактировать свои сообщения
Вы не можете удалять свои сообщения
Вы не можете голосовать в опросах
Вы не можете прикреплять файлы к сообщениям
Вы можете скачивать файлы