Статистика раздачи
Размер:  257 MB   |    Зарегистрирован:  2 месяца 5 дней   |    Скачан:  0 раз

Полного источника не было: Никогда

 
   
 
 

Антошка ®

Пол:
Не указан
Стаж:
3 месяца 7 дней
Сообщений:
132

Cold Passion - New Age Architects
Страна: Poland
Жанр: Gothic Metal
Носитель: CD
Год издания: 1998
Производитель диска: Mystic Production [Myst 002]
Аудиокодек: FLAC (*.flac)
Тип рипа: image+.cue
Битрейт аудио: lossless
Продолжительность: 0:37:21
Источник: собственный рип
Сканы: да
Треклист:
01. Delusion Of Life (2:29)
02. Shy Spirits (6:20)
03. On The Dreamside (6:22)
04. Lost Shine (3:54)
05. Lonely Fall (5:09)
06. Shallow Despair (1:02)
07. The Wheel Of Time (4:59)
08. New Age Architects (4:51)
09. Sorrow From Inside (2:16)

Info

"For promotional use only!" cardboard sleeve CD.

Отчёт ЕАС

Exact Audio Copy V1.1 from 23. June 2015
EAC extraction logfile from 15. March 2018, 2:03
Cold Passion / New Age Architects
Used drive : ASUS DRW-1612BL Adapter: 2 ID: 0
Read mode : Secure
Utilize accurate stream : Yes
Defeat audio cache : Yes
Make use of C2 pointers : No
Read offset correction : 6
Overread into Lead-In and Lead-Out : No
Fill up missing offset samples with silence : Yes
Delete leading and trailing silent blocks : No
Null samples used in CRC calculations : Yes
Used interface : Installed external ASPI interface
Used output format : User Defined Encoder
Selected bitrate : 128 kBit/s
Quality : High
Add ID3 tag : No
Command line compressor : C:\Program Files\EAC\Exact Audio Copy\Flac\flac.exe
Additional command line options : -V -8 -T "Date=%year%" -T "Genre=%genre%" %source%
TOC of the extracted CD
Track | Start | Length | Start sector | End sector
---------------------------------------------------------
1 | 0:00.00 | 2:28.60 | 0 | 11159
2 | 2:28.60 | 6:19.61 | 11160 | 39645
3 | 8:48.46 | 6:21.51 | 39646 | 68271
4 | 15:10.22 | 3:54.17 | 68272 | 85838
5 | 19:04.39 | 5:08.59 | 85839 | 108997
6 | 24:13.23 | 1:02.15 | 108998 | 113662
7 | 25:15.38 | 4:58.70 | 113663 | 136082
8 | 30:14.33 | 4:50.59 | 136083 | 157891
9 | 35:05.17 | 2:15.70 | 157892 | 168086
Range status and errors
Selected range
Filename C:\darkbrides\Cold Passion - New Age Architects.wav
Peak level 96.6 %
Extraction speed 6.2 X
Range quality 100.0 %
Test CRC 1DEB5036
Copy CRC 1DEB5036
Copy OK
No errors occurred
AccurateRip summary
Track 1 accurately ripped (confidence 1) [F7DDD6BB] (AR v1)
Track 2 accurately ripped (confidence 1) [C93ACF01] (AR v1)
Track 3 accurately ripped (confidence 1) [9F762272] (AR v1)
Track 4 accurately ripped (confidence 1) [F80B993F] (AR v1)
Track 5 accurately ripped (confidence 1) [18E62085] (AR v1)
Track 6 accurately ripped (confidence 1) [ED412342] (AR v1)
Track 7 accurately ripped (confidence 1) [530CE621] (AR v1)
Track 8 accurately ripped (confidence 1) [CACA60C9] (AR v1)
Track 9 accurately ripped (confidence 1) [985865D5] (AR v1)
All tracks accurately ripped
End of status report
---- CUETools DB Plugin V2.1.6
[CTDB TOCID: QEeH4MPePtcOtvMGYH4tJRRxOjI-] found
Submit result: QEeH4MPePtcOtvMGYH4tJRRxOjI- has been confirmed
Track | CTDB Status
1 | (2/2) Accurately ripped
2 | (2/2) Accurately ripped
3 | (2/2) Accurately ripped
4 | (2/2) Accurately ripped
5 | (2/2) Accurately ripped
6 | (2/2) Accurately ripped
7 | (2/2) Accurately ripped
8 | (2/2) Accurately ripped
9 | (2/2) Accurately ripped
==== Log checksum CB99567976044508083F3AF45EF90C96C9FE8EA7823D639F8A941AAFD58DF0EE ====
-
[cybertorrent.ru].t41171.torrent 
Торрент: Зарегистрирован [ 2018-03-17 18:55 ] · 2C7A98FD34EB17C68DE6FCD25F7E5F050C7EAAD3

Скачать .torrent

Скачать

11 KB

Статус: проверено
Скачан: 0 раз
Размер: 257 MB
Профиль [ЛС]
Показать сообщения:    

Текущее время: 22-Май 23:23

Часовой пояс: UTC ± 0



Вы не можете начинать темы
Вы не можете отвечать на сообщения
Вы не можете редактировать свои сообщения
Вы не можете удалять свои сообщения
Вы не можете голосовать в опросах
Вы не можете прикреплять файлы к сообщениям
Вы можете скачивать файлы