Статистика раздачи
Размер:  1,37 GB   |    Зарегистрирован:  1 месяц 6 дней   |    Скачан:  0 раз

Полного источника не было: Никогда

 
   
 
 

Awrora ®

Пол:
Не указан
Стаж:
2 месяца 8 дней
Сообщений:
624

Библиотекарь 3: Проклятие иудовой чаши
The Librarian: The Curse of the Judas Chalice
Страна: США
Жанр: фэнтези, боевик, триллер, мелодрама, комедия, приключения
Продолжительность: 01:30:10
Год выпуска: 2008
Перевод: Профессиональный (многоголосый закадровый) - Ren-TV
Субтитры: отсутствуют
Оригинальная аудиодорожка: английский-Режиссёр: Джонатан Фрейкс: Jonathan Frakes
В ролях: Ноа Уайли, Брюс Дэвисон, Стана Катик, Боб Ньюхарт, Джейн Куртин, Дикран Тулейн, Джейсон Дуглас, Элизабет Бурвант, Джо Кнезевич, Дэвид Борн.-О фильме: Третья часть захватывающих приключений Флина Карсена, в которой Флину вновь предстоит спасти мир, но уже от угрожающего всеобщему спокойствию воскрешения Графа Дракулы. Находясь в отпуске, Флин знакомится с умопомрачительной красоткой Симоной, которая совершенно неожиданно для Флина узнает в нем Библиотекаря и обращается к нему за помощью. Вместе они пытаются опередить русского злодея в поисках Чаши Иуды, которая одна способна воскресить к жизни великого вампира.-Данный перевод появляется на трекере впервые.
Перевод записан с регионального телеканала "Новое телевидение" (Караганда). Качество звука весьма посредственное.
Роли озвучивали: Ольга Плетнёва, Алексей Войтюк, Виталий Петров.-
Семпл: https://www.sendspace.com/file/whyoix-Качество: BDRip
Формат: AVI
Видео: XviD, 704x400 (16:9), 23,976 fps, ~1848 kbps, 0.274 bit/pixel
Аудио #1: [RUS] 48 kHz, AC3, 1 ch, 128 kbps
Аудио #2: [ENG] 48 kHz, AC3, 2 ch, 192 kbps

Mediainfo

Общее
Полное имя : F:\Bibliotekar.3.2008.BDRip.MVO.Ren-TV.Eng.avi
Формат : AVI
Формат/Информация : Audio Video Interleave
Размер файла : 1,37 Гбайт
Продолжительность : 1 ч. 30 м.
Общий поток : 2182 Кбит/сек
Программа кодирования : VirtualDubMod 1.5.10.2 (build 2540/release)
Библиотека кодирования : VirtualDubMod build 2540/release
Видео
Идентификатор : 0
Формат : MPEG-4 Visual
Профиль формата : Advanced Simple@L5
Параметр BVOP формата : 1
Параметр QPel формата : Нет
Параметр GMC формата : Без точки перехода
Параметр матрицы формата : Выборочная
Идентификатор кодека : XVID
Идентификатор кодека/Подсказка : XviD
Продолжительность : 1 ч. 30 м.
Битрейт : 1848 Кбит/сек
Ширина : 704 пикселя
Высота : 400 пикселей
Соотношение сторон : 16:9
Частота кадров : 23,976 (24000/1001) кадра/сек
Цветовое пространство : YUV
Субдискретизация насыщенности : 4:2:0
Битовая глубина : 8 бит
Тип развёртки : Прогрессивная
Метод сжатия : С потерями
Бит/(Пиксели*Кадры) : 0.274
Размер потока : 1,16 Гбайт (85%)
Библиотека кодирования : XviD 65
Аудио #1
Идентификатор : 1
Формат : AC-3
Формат/Информация : Audio Coding 3
Параметр Endianness формата : Big
Идентификатор кодека : 2000
Продолжительность : 1 ч. 30 м.
Вид битрейта : Постоянный
Битрейт : 128 Кбит/сек
Каналы : 1 канал
Расположение каналов : Front: C
Частота : 48,0 КГц
Частота кадров : 31,250 кадров/сек (1536 SPF)
Битовая глубина : 16 бит
Метод сжатия : С потерями
Размер потока : 82,6 Мбайт (6%)
Выравнивание : Разделение по промежуткам
Продолжительность промежутка : 42 мс. (1,00 видеокадр)
Время предзагрузки промежутка : 500 мс.
ServiceKind/String : Complete Main
Аудио #2
Идентификатор : 2
Формат : AC-3
Формат/Информация : Audio Coding 3
Параметр Endianness формата : Big
Идентификатор кодека : 2000
Продолжительность : 1 ч. 30 м.
Вид битрейта : Постоянный
Битрейт : 192 Кбит/сек
Каналы : 2 канала
Расположение каналов : Front: L R
Частота : 48,0 КГц
Частота кадров : 31,250 кадров/сек (1536 SPF)
Битовая глубина : 16 бит
Метод сжатия : С потерями
Размер потока : 124 Мбайт (9%)
Выравнивание : Разделение по промежуткам
Продолжительность промежутка : 42 мс. (1,00 видеокадр)
Время предзагрузки промежутка : 500 мс.
ServiceKind/String : Complete Main

Скриншоты

[cybertorrent.ru].t41172.torrent 
Торрент: Зарегистрирован [ 2018-03-17 18:55 ] · 96677B07199872377F8F0D696781FE9565013F9E

Скачать .torrent

Скачать

14 KB

Статус: проверено
Скачан: 0 раз
Размер: 1,37 GB
Профиль [ЛС]
Показать сообщения:    

Текущее время: 24-Апр 04:49

Часовой пояс: UTC ± 0



Вы не можете начинать темы
Вы не можете отвечать на сообщения
Вы не можете редактировать свои сообщения
Вы не можете удалять свои сообщения
Вы не можете голосовать в опросах
Вы не можете прикреплять файлы к сообщениям
Вы можете скачивать файлы