Статистика раздачи
Размер:  131 MB   |    Зарегистрирован:  1 месяц 4 дня   |    Скачан:  0 раз

Полного источника не было: Никогда

 
   
 
 

ZOOMer ®

Пол:
Не указан
Стаж:
2 месяца 7 дней
Сообщений:
123

Ужасное, странное и невероятное происшествие с мсье Тете / L'Horrible, bizarre et incroyable histoire de monsieur Tête / The horrible, bizarre and incredible adventure of Monsieur Tete
Страна: Франция
Жанр: авторская анимация
Год выпуска: 1959
Продолжительность: 00:12:46
Перевод: субтитры (переводчик - В.Борискин)
Субтитры: русские
Режиссёры: Ян Леница / Jan Lenica, Анри Грюэль / Henri Gruel
Композитор: Филипп Артюи / Philippe Arthuys
Текст читает: Дуглас Блэквелл / Douglas Blackwell
Описание: Мультфильм по сюжету Эжена Ионеско о молодом человеке, голова которого однажды начала мыслить слишком самостоятельно.
Доп. информация: Приз критики и Приз имени Эмиля Коля - Фестиваль в Туре (1959)
Качество видео: WEBRip
Формат видео: AVI
Видео: 1294 kbps, 640х480 (4:3), 25.000 fps, MPEG-4 Visual (XviD)
Аудио: 128 kbps, 44.1 kHz, 2 channels, MPEG Audio (MP3)
Формат субтитров: softsub (SRT)

MediaInfo

General
Complete name : Monsieur Tete (1959).avi
Format : AVI
Format/Info : Audio Video Interleave
File size : 131 MiB
Duration : 12mn 46s
Overall bit rate : 1 434 Kbps
Writing application : Lavf55.33.100
Writing library : VirtualDub build 35491/release
Video
ID : 0
Format : MPEG-4 Visual
Format profile : Advanced Simple@L4
Format settings, BVOP : 2
Format settings, QPel : No
Format settings, GMC : No warppoints
Format settings, Matrix : Default (H.263)
Codec ID : XVID
Codec ID/Hint : XviD
Duration : 12mn 46s
Bit rate : 1 294 Kbps
Width : 640 pixels
Height : 480 pixels
Display aspect ratio : 4:3
Frame rate : 25.000 fps
Color space : YUV
Chroma subsampling : 4:2:0
Bit depth : 8 bits
Scan type : Progressive
Compression mode : Lossy
Bits/(Pixel*Frame) : 0.168
Stream size : 118 MiB (90%)
Writing library : XviD 64
Audio
ID : 1
Format : MPEG Audio
Format version : Version 1
Format profile : Layer 3
Mode : Joint stereo
Mode extension : MS Stereo
Codec ID : 55
Codec ID/Hint : MP3
Duration : 12mn 46s
Bit rate mode : Constant
Bit rate : 128 Kbps
Channel(s) : 2 channels
Sampling rate : 44.1 KHz
Compression mode : Lossy
Stream size : 11.7 MiB (9%)
Alignment : Aligned on interleaves
Interleave, duration : 26 ms (0.65 video frame)
Interleave, preload duration : 522 ms

Скриншот c названием фильма

Скриншоты

Пример субтитров

1
00:00:07,860 --> 00:00:13,630
УЖАСНОЕ, СТРАННОЕ
И НЕВЕРОЯТНОЕ
ПРОИСШЕСТВИЕ С
2
00:00:14,780 --> 00:00:18,880
МСЬЕ ТЕТЕ
3
00:00:19,900 --> 00:00:23,520
Музыка Филиппа Артюи
4
00:00:39,030 --> 00:00:44,060
Фильм Яна Леницы и Анри Грюэля
5
00:00:44,090 --> 00:00:48,730
При участии Эжена Ионеско
и голоса Дугласа Блэквелла
6
00:00:52,150 --> 00:00:55,150
Солнце не всегда поднимается
в одно и то же время.
7
00:00:56,050 --> 00:00:58,000
C каждым днём это происходит
немного раньше,
8
00:00:58,050 --> 00:01:00,830
кроме зимы, когда
это бывает наоборот позже.
9
00:01:02,180 --> 00:01:06,490
Этим утром жители города,
ночью страдавшие бессонницей,
10
00:01:07,160 --> 00:01:08,770
всё ещё крепко спали.
11
00:01:10,870 --> 00:01:12,190
Увы, птицы...
12
00:01:13,520 --> 00:01:17,580
Птицы… Ох, птицы.
13
00:01:26,390 --> 00:01:27,480
Что за жизнь!
14
00:01:57,680 --> 00:02:00,270
Как обычно, сверюсь
со своими источниками.
15
00:02:01,350 --> 00:02:02,930
На востоке - ничего нового.
16
00:02:04,260 --> 00:02:05,210
Ничего нового на западе.
[cybertorrent.ru].t41176.torrent 
Торрент: Зарегистрирован [ 2018-03-17 18:55 ] · E72F39D54F8674696B1745CDB3B38FBD345D9983

Скачать .torrent

Скачать

11 KB

Статус: проверено
Скачан: 0 раз
Размер: 131 MB
Профиль [ЛС]
Показать сообщения:    

Текущее время: 22-Апр 14:35

Часовой пояс: UTC ± 0



Вы не можете начинать темы
Вы не можете отвечать на сообщения
Вы не можете редактировать свои сообщения
Вы не можете удалять свои сообщения
Вы не можете голосовать в опросах
Вы не можете прикреплять файлы к сообщениям
Вы можете скачивать файлы