Статистика раздачи
Размер:  503 MB   |    Зарегистрирован:  1 месяц 6 дней   |    Скачан:  0 раз

Полного источника не было: Никогда

 
   
 
 

NINJA ®

Пол:
Не указан
Стаж:
2 месяца 9 дней
Сообщений:
264

The Microscopic Septet - Lobster Leaps In Жанр: Modern Creative
Носитель: CD
Год издания: 2008
Издатель (лейбл): Cuneiform Records/Phillip Johnston
Номер по каталогу: RUNE 272
Аудиокодек: FLAC (*.flac)
Тип рипа: tracks+.cue
Битрейт аудио: lossless
Продолжительность: 73:11
Источник (релизер): ruskaval
Наличие сканов в содержимом раздачи: да
Треклист:
01. Night Train Express (4:21)
02. Disconcerto for Donnie (8:03)
03. Lobster Leaps In (4:09)
04. Got Lucky (6:05)
05. Lies (8:35)
06. Life's Other Mystery (6:55)
07. Almost Right (4:01)
08. Money Money Money (9:18)
09. Lt. Cassawary (6:11)
10. Twilight Time Zone (5:40)
11. The Big Squeeze (9:53)
The Microscopic Septet:
Phillip Johnston – soprano saxophone
Don Davis – alto saxophone
Mike Hashim – tenor saxophone
Dave Sewelson – baritone saxophone
Joel Forrester – piano
Dave Hofstra – bass
Richard Dworkin – drums
 

Несколько слов на английском

The Microscopic Septet had been disbanded for quite a few years by the time a pair of twin CD reissue compilations appeared on the Cuneiform label in 2006, prompting a brief reunion of the group to support sales. The musicians had so much fun that they decided to get together again to record a few of the many compositions that the band played during its existence, reuniting pianist Joel Forrester, soprano saxophonist Phillip Johnston, alto saxophonist Don Davis, baritone saxophonist Dave Sewelson, bassist David Hofstra, and drummer Richard Dworkin, with the one new addition being tenor saxophonist Mike Hashim.There were rehearsals and a few live engagements prior to the studio recording session, though Johnston warned that one can hardly expect the playing to be at the level of when the band was working regularly. As on their recordings of the 1980s, the originals by either Forrester or Johnston are often loopy and unpredictable, with lots of sudden twists and plenty of room for spirited improvisations. Wayne Horvitz's "Night Train Express," which was often used as an opening number when the band was in its heyday, is revived as a perfect way to reintroduce the Microscopic Septet, a fairly straight-ahead (by the band's standards, anyway) number blending boogie, R&B, and bop. Johnston's "Lobster Leaps In" has the flavor of Raymond Scott's works of the 1930s and 1940s, though it quickly loosens up. Forrester's "Money Money Money" is a wailing avant-garde masterpiece that sounds as if it could have been recorded during the 1960s. Rest assured that if you enjoyed earlier recordings by the Microscopic Septet, you will be delighted with their nostalgic yet forward-looking reunion.
-

Лог создания рипа

Exact Audio Copy V1.3 from 2. September 2016
EAC extraction logfile from 13. August 2017, 15:41
The Microscopic Septet / Lobster Leaps In
Used drive : PLEXTOR DVDR PX-891SAW Adapter: 0 ID: 0
Read mode : Secure
Utilize accurate stream : Yes
Defeat audio cache : Yes
Make use of C2 pointers : No
Read offset correction : 48
Overread into Lead-In and Lead-Out : No
Fill up missing offset samples with silence : Yes
Delete leading and trailing silent blocks : No
Null samples used in CRC calculations : Yes
Used interface : Installed external ASPI interface
Gap handling : Appended to previous track
Used output format : User Defined Encoder
Selected bitrate : 1024 kBit/s
Quality : High
Add ID3 tag : No
Command line compressor : C:\Program Files\eac-1.0beta4\Flac\flac.exe
Additional command line options : -8 -V -T "ARTIST=%artist%" -T "TITLE=%title%" -T "ALBUM=%albumtitle%" -T "DATE=%year%" -T "TRACKNUMBER=%tracknr%" -T "GENRE=%genre%" -T "PERFORMER=%albuminterpret%" -T "COMPOSER=%composer%" %haslyrics%--tag-from-file=LYRICS="%lyricsfile%"%haslyrics% -T "ALBUMARTIST=%albumartist%" -T "ALBUM ARTIST=%albumartist%" -T "DISCNUMBER=%cdnumber%" -T "TOTALDISCS=%totalcds%" -T "TOTALTRACKS=%numtracks%" -T "COMMENT=ivo" %source% -o %dest%
TOC of the extracted CD
Track | Start | Length | Start sector | End sector
---------------------------------------------------------
1 | 0:00.00 | 4:20.70 | 0 | 19569
2 | 4:20.70 | 8:03.31 | 19570 | 55825
3 | 12:24.26 | 4:09.08 | 55826 | 74508
4 | 16:33.34 | 6:05.08 | 74509 | 101891
5 | 22:38.42 | 8:35.29 | 101892 | 140545
6 | 31:13.71 | 6:54.43 | 140546 | 171638
7 | 38:08.39 | 4:00.67 | 171639 | 189705
8 | 42:09.31 | 9:17.61 | 189706 | 231541
9 | 51:27.17 | 6:10.50 | 231542 | 259341
10 | 57:37.67 | 5:40.24 | 259342 | 284865
11 | 63:18.16 | 9:52.49 | 284866 | 329314
Track 1
Filename F:\igor\eac\01 - Night Train Express.wav
Pre-gap length 0:00:02.00
Peak level 97.7 %
Extraction speed 3.4 X
Track quality 99.9 %
Test CRC 0ED689BE
Copy CRC 0ED689BE
Accurately ripped (confidence 3) [03801752] (AR v2)
Copy OK
Track 2
Filename F:\igor\eac\02 - Disconcerto for Donnie.wav
Pre-gap length 0:00:02.86
Peak level 97.8 %
Extraction speed 4.7 X
Track quality 99.9 %
Test CRC 877FEE37
Copy CRC 877FEE37
Accurately ripped (confidence 3) [1549A7DC] (AR v2)
Copy OK
Track 3
Filename F:\igor\eac\03 - Lobster Leaps In.wav
Pre-gap length 0:00:02.57
Peak level 97.7 %
Extraction speed 5.7 X
Track quality 100.0 %
Test CRC BC808A2A
Copy CRC BC808A2A
Accurately ripped (confidence 3) [F34B840D] (AR v2)
Copy OK
Track 4
Filename F:\igor\eac\04 - Got Lucky.wav
Pre-gap length 0:00:02.62
Peak level 97.8 %
Extraction speed 6.5 X
Track quality 100.0 %
Test CRC C5116B76
Copy CRC C5116B76
Accurately ripped (confidence 3) [629E9367] (AR v2)
Copy OK
Track 5
Filename F:\igor\eac\05 - Lies.wav
Pre-gap length 0:00:02.62
Peak level 97.7 %
Extraction speed 7.4 X
Track quality 100.0 %
Test CRC E8BD05B2
Copy CRC E8BD05B2
Accurately ripped (confidence 3) [B550D956] (AR v2)
Copy OK
Track 6
Filename F:\igor\eac\06 - Life's Other Mystery.wav
Pre-gap length 0:00:02.76
Peak level 97.8 %
Extraction speed 7.8 X
Track quality 100.0 %
Test CRC 8602CA8D
Copy CRC 8602CA8D
Accurately ripped (confidence 3) [AAAB2AFA] (AR v2)
Copy OK
Track 7
Filename F:\igor\eac\07 - Almost Right.wav
Pre-gap length 0:00:02.50
Peak level 97.8 %
Extraction speed 7.7 X
Track quality 100.0 %
Test CRC F4B46D65
Copy CRC F4B46D65
Accurately ripped (confidence 3) [1816BADA] (AR v2)
Copy OK
Track 8
Filename F:\igor\eac\08 - Money Money Money.wav
Pre-gap length 0:00:02.57
Peak level 98.9 %
Extraction speed 8.7 X
Track quality 100.0 %
Test CRC 6F9064B6
Copy CRC 6F9064B6
Accurately ripped (confidence 3) [B68BDF79] (AR v2)
Copy OK
Track 9
Filename F:\igor\eac\09 - Lt. Cassawary.wav
Pre-gap length 0:00:02.62
Peak level 97.8 %
Extraction speed 8.8 X
Track quality 100.0 %
Test CRC 7F5BE80D
Copy CRC 7F5BE80D
Accurately ripped (confidence 3) [D69E0BEB] (AR v2)
Copy OK
Track 10
Filename F:\igor\eac\10 - Twilight Time Zone.wav
Pre-gap length 0:00:02.65
Peak level 97.8 %
Extraction speed 8.7 X
Track quality 100.0 %
Test CRC 0DF8340A
Copy CRC 0DF8340A
Accurately ripped (confidence 3) [368BAEF9] (AR v2)
Copy OK
Track 11
Filename F:\igor\eac\11 - The Big Squeeze.wav
Pre-gap length 0:00:02.60
Peak level 97.8 %
Extraction speed 9.8 X
Track quality 100.0 %
Test CRC AC201670
Copy CRC AC201670
Accurately ripped (confidence 3) [8DB8FCFC] (AR v2)
Copy OK
All tracks accurately ripped
No errors occurred
End of status report
---- CUETools DB Plugin V2.1.6
[CTDB TOCID: 1JlvfVTGR5EG7wJidM5d8P73GyY-] found
Submit result: 1JlvfVTGR5EG7wJidM5d8P73GyY- has been confirmed
Track | CTDB Status
1 | (2/2) Accurately ripped
2 | (2/2) Accurately ripped
3 | (2/2) Accurately ripped
4 | (2/2) Accurately ripped
5 | (2/2) Accurately ripped
6 | (2/2) Accurately ripped
7 | (2/2) Accurately ripped
8 | (2/2) Accurately ripped
9 | (2/2) Accurately ripped
10 | (2/2) Accurately ripped
11 | (2/2) Accurately ripped
==== Log checksum F1186C65653F963BFA12F4FA0CE1FD2129F2E45057412ABBDA1C6E7A39937EBA ====

Содержание индексной карты (.CUE)

REM GENRE Jazz
REM DATE 2008
REM DISCID 9F11260B
REM COMMENT "ExactAudioCopy v1.3"
PERFORMER "The Microscopic Septet"
TITLE "Lobster Leaps In"
REM COMPOSER ""
FILE "01 - Night Train Express.wav" WAVE
TRACK 01 AUDIO
TITLE "Night Train Express"
PERFORMER "The Microscopic Septet"
REM COMPOSER ""
INDEX 01 00:00:00
TRACK 02 AUDIO
TITLE "Disconcerto for Donnie"
PERFORMER "The Microscopic Septet"
REM COMPOSER ""
INDEX 00 04:18:05
FILE "02 - Disconcerto for Donnie.wav" WAVE
INDEX 01 00:00:00
TRACK 03 AUDIO
TITLE "Lobster Leaps In"
PERFORMER "The Microscopic Septet"
REM COMPOSER ""
INDEX 00 08:00:63
FILE "03 - Lobster Leaps In.wav" WAVE
INDEX 01 00:00:00
TRACK 04 AUDIO
TITLE "Got Lucky"
PERFORMER "The Microscopic Septet"
REM COMPOSER ""
INDEX 00 04:06:36
FILE "04 - Got Lucky.wav" WAVE
INDEX 01 00:00:00
TRACK 05 AUDIO
TITLE "Lies"
PERFORMER "The Microscopic Septet"
REM COMPOSER ""
INDEX 00 06:02:36
FILE "05 - Lies.wav" WAVE
INDEX 01 00:00:00
TRACK 06 AUDIO
TITLE "Life's Other Mystery"
PERFORMER "The Microscopic Septet"
REM COMPOSER ""
INDEX 00 08:32:47
FILE "06 - Life's Other Mystery.wav" WAVE
INDEX 01 00:00:00
TRACK 07 AUDIO
TITLE "Almost Right"
PERFORMER "The Microscopic Septet"
REM COMPOSER ""
INDEX 00 06:52:05
FILE "07 - Almost Right.wav" WAVE
INDEX 01 00:00:00
TRACK 08 AUDIO
TITLE "Money Money Money"
PERFORMER "The Microscopic Septet"
REM COMPOSER ""
INDEX 00 03:58:24
FILE "08 - Money Money Money.wav" WAVE
INDEX 01 00:00:00
TRACK 09 AUDIO
TITLE "Lt. Cassawary"
PERFORMER "The Microscopic Septet"
REM COMPOSER ""
INDEX 00 09:15:14
FILE "09 - Lt. Cassawary.wav" WAVE
INDEX 01 00:00:00
TRACK 10 AUDIO
TITLE "Twilight Time Zone"
PERFORMER "The Microscopic Septet"
REM COMPOSER ""
INDEX 00 06:08:01
FILE "10 - Twilight Time Zone.wav" WAVE
INDEX 01 00:00:00
TRACK 11 AUDIO
TITLE "The Big Squeeze"
PERFORMER "The Microscopic Septet"
REM COMPOSER ""
INDEX 00 05:37:54
FILE "11 - The Big Squeeze.wav" WAVE
INDEX 01 00:00:00
[cybertorrent.ru].t41183.torrent 
Торрент: Зарегистрирован [ 2018-03-17 18:55 ] · C81E793A89E26BB84E7973F237E6CE053D709AC7

Скачать .torrent

Скачать

21 KB

Статус: проверено
Скачан: 0 раз
Размер: 503 MB
Профиль [ЛС]
Показать сообщения:    

Текущее время: 24-Апр 14:22

Часовой пояс: UTC ± 0



Вы не можете начинать темы
Вы не можете отвечать на сообщения
Вы не можете редактировать свои сообщения
Вы не можете удалять свои сообщения
Вы не можете голосовать в опросах
Вы не можете прикреплять файлы к сообщениям
Вы можете скачивать файлы