Статистика раздачи
Размер:  383 MB   |    Зарегистрирован:  2 месяца 5 дней   |    Скачан:  0 раз

Полного источника не было: Никогда

 
   
 
 

NINJA ®

Пол:
Не указан
Стаж:
3 месяца 7 дней
Сообщений:
264

The Microscopic Septet - Manhattan Moonrise Жанр: Modern Creative
Носитель: CD
Год издания: 2014
Издатель (лейбл): Cuneiform Records/Phillip Johnston
Номер по каталогу: RUNE 370
Аудиокодек: FLAC (*.flac)
Тип рипа: tracks+.cue
Битрейт аудио: lossless
Продолжительность: 61:15
Источник (релизер): ruskaval
Наличие сканов в содержимом раздачи: да
Треклист:
01. When You Get In Over Your Head (3:50)
02. No Time (5:51)
03. Manhattan Moonrise (8:15)
04. Obeying the Chemicals (3:22)
05. A Snapshot of the Soul (4:13)
06. Star Turn (5:13)
07. Hang It On a Line (5:49)
08. Let's Coolerate One (5:13)
09. Suspended Animation (5:02)
10. Blue (4:14)
11. You Got That Right (4:57)
12. Occupy Your Life (5:15)
The Microscopic Septet:
Phillip Johnston – soprano saxophone
Don Davis – alto saxophone
Mike Hashim – tenor saxophone
Dave Sewelson – baritone saxophone
Joel Forrester – piano
Dave Hofstra – bass
Richard Dworkin – drums
Rec.: Systems Two Recording Studio, Brooklyn, NY.
 

Несколько слов на английском

In the 80s, the band engendered a cagey slant on mainstream swing and then morphed into the risk-taking New York downtown scene, eventually garnering widespread attention and sell-out crowds at the Knitting Factory and other hip venues. They regrouped in 2006, carrying the torch for what has become a singular sound, ingrained in classic jazz stylizations, bop, funk, and the free-jazz domain. Known for its quirky deviations, razor-sharp horns arrangements and melodic hooks, the septet's spunkiness and tightknit overtures align with the stars on Manhattan Moonrise.The musicians tackle a funk rock itinerary spiced with pianist Joel Forrester's New Orleans style phrasings in support of baritone saxophonist Dave Sewelson's ballsy impetus on "Hang It On A Line." Augmented by whispery horns and contrapuntal dialogues, they ring in a good timey vibe, slightly shaded with sober undertones. They spark a polytonal jamboree, while integrating linear unison choruses and drummer Richard Dworkin's snappy breaks between choruses. Here, the ensemble renders alternating modalities and launch the bridge with Sewelson's fervent solo spot atop a swaggering groove. And the musicians shift the dynamic with a straightforward and slightly in-you-face interlude as an embryonic current ensues. Towards the finale, the hornists gel to a simple melody via extended notes, yielding a subliminal nod to 70s like soul jazz. No monumental surprises here, but another stirring and broadly entertaining production by these consummate team players.
-

Лог создания рипа

Exact Audio Copy V1.3 from 2. September 2016
EAC extraction logfile from 13. August 2017, 15:12
The Microscopic Septet / Manhattan Moonrise
Used drive : PLEXTOR DVDR PX-891SAW Adapter: 0 ID: 0
Read mode : Secure
Utilize accurate stream : Yes
Defeat audio cache : Yes
Make use of C2 pointers : No
Read offset correction : 48
Overread into Lead-In and Lead-Out : No
Fill up missing offset samples with silence : Yes
Delete leading and trailing silent blocks : No
Null samples used in CRC calculations : Yes
Used interface : Installed external ASPI interface
Gap handling : Appended to previous track
Used output format : User Defined Encoder
Selected bitrate : 1024 kBit/s
Quality : High
Add ID3 tag : No
Command line compressor : C:\Program Files\eac-1.0beta4\Flac\flac.exe
Additional command line options : -8 -V -T "ARTIST=%artist%" -T "TITLE=%title%" -T "ALBUM=%albumtitle%" -T "DATE=%year%" -T "TRACKNUMBER=%tracknr%" -T "GENRE=%genre%" -T "PERFORMER=%albuminterpret%" -T "COMPOSER=%composer%" %haslyrics%--tag-from-file=LYRICS="%lyricsfile%"%haslyrics% -T "ALBUMARTIST=%albumartist%" -T "ALBUM ARTIST=%albumartist%" -T "DISCNUMBER=%cdnumber%" -T "TOTALDISCS=%totalcds%" -T "TOTALTRACKS=%numtracks%" -T "COMMENT=ivo" %source% -o %dest%
TOC of the extracted CD
Track | Start | Length | Start sector | End sector
---------------------------------------------------------
1 | 0:00.00 | 3:50.36 | 0 | 17285
2 | 3:50.36 | 5:50.71 | 17286 | 43606
3 | 9:41.32 | 8:14.57 | 43607 | 80713
4 | 17:56.14 | 3:22.11 | 80714 | 95874
5 | 21:18.25 | 4:13.10 | 95875 | 114859
6 | 25:31.35 | 5:12.51 | 114860 | 138310
7 | 30:44.11 | 5:49.36 | 138311 | 164521
8 | 36:33.47 | 5:12.54 | 164522 | 187975
9 | 41:46.26 | 5:02.00 | 187976 | 210625
10 | 46:48.26 | 4:14.04 | 210626 | 229679
11 | 51:02.30 | 4:57.25 | 229680 | 251979
12 | 55:59.55 | 5:15.30 | 251980 | 275634
Track 1
Filename F:\igor\eac\01 - When You Get In Over Your Head.wav
Pre-gap length 0:00:02.00
Peak level 99.9 %
Extraction speed 4.6 X
Track quality 100.0 %
Test CRC E44F6088
Copy CRC E44F6088
Accurately ripped (confidence 2) [2E843319] (AR v2)
Copy OK
Track 2
Filename F:\igor\eac\02 - No Time.wav
Peak level 95.8 %
Extraction speed 4.3 X
Track quality 99.9 %
Test CRC 0E9428EF
Copy CRC 0E9428EF
Accurately ripped (confidence 2) [F6CA083D] (AR v2)
Copy OK
Track 3
Filename F:\igor\eac\03 - Manhattan Moonrise.wav
Peak level 99.9 %
Extraction speed 6.3 X
Track quality 100.0 %
Test CRC C501D4DF
Copy CRC C501D4DF
Accurately ripped (confidence 2) [C1E93A91] (AR v2)
Copy OK
Track 4
Filename F:\igor\eac\04 - Obeying the Chemicals.wav
Peak level 99.9 %
Extraction speed 4.2 X
Track quality 99.9 %
Test CRC 0DDF20E4
Copy CRC 0DDF20E4
Accurately ripped (confidence 2) [28462CFE] (AR v2)
Copy OK
Track 5
Filename F:\igor\eac\05 - A Snapshot of the Soul.wav
Peak level 93.5 %
Extraction speed 6.3 X
Track quality 100.0 %
Test CRC 1F828ACA
Copy CRC 1F828ACA
Accurately ripped (confidence 2) [CDDB2F12] (AR v2)
Copy OK
Track 6
Filename F:\igor\eac\06 - Star Turn.wav
Peak level 99.9 %
Extraction speed 6.9 X
Track quality 100.0 %
Test CRC 18E2E009
Copy CRC 18E2E009
Accurately ripped (confidence 2) [595F8A84] (AR v2)
Copy OK
Track 7
Filename F:\igor\eac\07 - Hang It On a Line.wav
Peak level 99.9 %
Extraction speed 7.7 X
Track quality 100.0 %
Test CRC 4BCF9AE2
Copy CRC 4BCF9AE2
Accurately ripped (confidence 2) [261D25AE] (AR v2)
Copy OK
Track 8
Filename F:\igor\eac\08 - Let's Coolerate One.wav
Peak level 99.9 %
Extraction speed 6.0 X
Track quality 99.9 %
Test CRC 1B5D7485
Copy CRC 1B5D7485
Accurately ripped (confidence 2) [A0F834AE] (AR v2)
Copy OK
Track 9
Filename F:\igor\eac\09 - Suspended Animation.wav
Peak level 99.9 %
Extraction speed 8.3 X
Track quality 100.0 %
Test CRC BCF4DE4F
Copy CRC BCF4DE4F
Accurately ripped (confidence 2) [ECE58865] (AR v2)
Copy OK
Track 10
Filename F:\igor\eac\10 - Blue.wav
Peak level 99.9 %
Extraction speed 8.3 X
Track quality 100.0 %
Test CRC 69D82860
Copy CRC 69D82860
Accurately ripped (confidence 2) [E8A00E77] (AR v2)
Copy OK
Track 11
Filename F:\igor\eac\11 - You Got That Right.wav
Peak level 99.9 %
Extraction speed 8.7 X
Track quality 100.0 %
Test CRC 3D47EFEE
Copy CRC 3D47EFEE
Accurately ripped (confidence 2) [425E3416] (AR v2)
Copy OK
Track 12
Filename F:\igor\eac\12 - Occupy Your Life.wav
Peak level 99.9 %
Extraction speed 6.6 X
Track quality 99.9 %
Test CRC CD02A8D0
Copy CRC CD02A8D0
Accurately ripped (confidence 2) [142BAD7F] (AR v2)
Copy OK
All tracks accurately ripped
No errors occurred
End of status report
---- CUETools DB Plugin V2.1.6
[CTDB TOCID: ye8U4BRRkrdJQRhmWkr8wC0kcRw-] found
Submit result: ye8U4BRRkrdJQRhmWkr8wC0kcRw- has been confirmed
Track | CTDB Status
1 | (3/3) Accurately ripped
2 | (3/3) Accurately ripped
3 | (3/3) Accurately ripped
4 | (2/3) Accurately ripped
5 | (3/3) Accurately ripped
6 | (2/3) Accurately ripped
7 | (3/3) Accurately ripped
8 | (3/3) Accurately ripped
9 | (3/3) Accurately ripped
10 | (3/3) Accurately ripped
11 | (3/3) Accurately ripped
12 | (3/3) Accurately ripped
==== Log checksum 2790A2F20B08C71D03DB9B7CA1AD804681F4B5D5D6B7A8B6C96BC24B482DD91E ====

Содержание индексной карты (.CUE)

REM GENRE Jazz
REM DATE 2014
REM DISCID 980E5B0C
REM COMMENT "ExactAudioCopy v1.3"
PERFORMER "The Microscopic Septet"
TITLE "Manhattan Moonrise"
REM COMPOSER ""
FILE "01 - When You Get In Over Your Head.wav" WAVE
TRACK 01 AUDIO
TITLE "When You Get In Over Your Head"
PERFORMER "The Microscopic Septet"
REM COMPOSER ""
FLAGS DCP
INDEX 01 00:00:00
FILE "02 - No Time.wav" WAVE
TRACK 02 AUDIO
TITLE "No Time"
PERFORMER "The Microscopic Septet"
REM COMPOSER ""
FLAGS DCP
INDEX 01 00:00:00
FILE "03 - Manhattan Moonrise.wav" WAVE
TRACK 03 AUDIO
TITLE "Manhattan Moonrise"
PERFORMER "The Microscopic Septet"
REM COMPOSER ""
FLAGS DCP
INDEX 01 00:00:00
FILE "04 - Obeying the Chemicals.wav" WAVE
TRACK 04 AUDIO
TITLE "Obeying the Chemicals"
PERFORMER "The Microscopic Septet"
REM COMPOSER ""
FLAGS DCP
INDEX 01 00:00:00
FILE "05 - A Snapshot of the Soul.wav" WAVE
TRACK 05 AUDIO
TITLE "A Snapshot of the Soul"
PERFORMER "The Microscopic Septet"
REM COMPOSER ""
FLAGS DCP
INDEX 01 00:00:00
FILE "06 - Star Turn.wav" WAVE
TRACK 06 AUDIO
TITLE "Star Turn"
PERFORMER "The Microscopic Septet"
REM COMPOSER ""
FLAGS DCP
INDEX 01 00:00:00
FILE "07 - Hang It On a Line.wav" WAVE
TRACK 07 AUDIO
TITLE "Hang It On a Line"
PERFORMER "The Microscopic Septet"
REM COMPOSER ""
FLAGS DCP
INDEX 01 00:00:00
FILE "08 - Let's Coolerate One.wav" WAVE
TRACK 08 AUDIO
TITLE "Let's Coolerate One"
PERFORMER "The Microscopic Septet"
REM COMPOSER ""
FLAGS DCP
INDEX 01 00:00:00
FILE "09 - Suspended Animation.wav" WAVE
TRACK 09 AUDIO
TITLE "Suspended Animation"
PERFORMER "The Microscopic Septet"
REM COMPOSER ""
FLAGS DCP
INDEX 01 00:00:00
FILE "10 - Blue.wav" WAVE
TRACK 10 AUDIO
TITLE "Blue"
PERFORMER "The Microscopic Septet"
REM COMPOSER ""
FLAGS DCP
INDEX 01 00:00:00
FILE "11 - You Got That Right.wav" WAVE
TRACK 11 AUDIO
TITLE "You Got That Right"
PERFORMER "The Microscopic Septet"
REM COMPOSER ""
FLAGS DCP
INDEX 01 00:00:00
FILE "12 - Occupy Your Life.wav" WAVE
TRACK 12 AUDIO
TITLE "Occupy Your Life"
PERFORMER "The Microscopic Septet"
REM COMPOSER ""
FLAGS DCP
INDEX 01 00:00:00
[cybertorrent.ru].t41188.torrent 
Торрент: Зарегистрирован [ 2018-03-17 18:55 ] · 57DFA2E9E9DFF6406E28975054684274F878D6CE

Скачать .torrent

Скачать

17 KB

Статус: проверено
Скачан: 0 раз
Размер: 383 MB
Профиль [ЛС]
Показать сообщения:    

Текущее время: 22-Май 23:10

Часовой пояс: UTC ± 0



Вы не можете начинать темы
Вы не можете отвечать на сообщения
Вы не можете редактировать свои сообщения
Вы не можете удалять свои сообщения
Вы не можете голосовать в опросах
Вы не можете прикреплять файлы к сообщениям
Вы можете скачивать файлы