Статистика раздачи
Размер:  202 MB   |    Зарегистрирован:  1 месяц 5 дней   |    Скачан:  0 раз

Полного источника не было: Никогда

 
   
 
 

Катюшка ®

Пол:
Не указан
Стаж:
2 месяца 7 дней
Сообщений:
288

Stonila / Prophecy
Жанр: Psychedelic / Progressive Rock / Stoner Rock
Носитель: WEB
Год издания: 2018
Издатель (лейбл): Web Release
Страна исполнителя (группы): Greece
Аудиокодек: FLAC (*.flac)
Тип рипа: tracks
Битрейт аудио: lossless
Продолжительность: 32:20 min
Источник (релизер): bandcamp.com
Наличие сканов в содержимом раздачи:
Треклист:
1. Prophecy. 8:10
2. Shield of Water. 10:01
3. Anatolia. 14:07

DRM.log

foobar2000 1.3.8 / Dynamic Range Meter 1.1.1
log date: 2018-03-15 19:29:22
--------------------------------------------------------------------------------
Analyzed: Stonila / Prophecy
--------------------------------------------------------------------------------
DR Peak RMS Duration Track
--------------------------------------------------------------------------------
DR6 0.00 dB -8.23 dB 8:11 01-Prophecy
DR6 0.00 dB -8.34 dB 10:02 02-Shield of Water
DR7 0.00 dB -8.41 dB 14:08 03-Anatolia
--------------------------------------------------------------------------------
Number of tracks: 3
Official DR value: DR6
Samplerate: 44100 Hz
Channels: 2
Bits per sample: 16
Bitrate: 841 kbps
Codec: FLAC
================================================================================

Лог проверки качества

-----------------------
DON'T MODIFY THIS FILE
-----------------------
PERFORMER: auCDtect Task Manager, ver. 1.6.0 RC1 build 1.6.0.1
Copyright (c) 2008-2010 y-soft. All rights reserved
http://y-soft.org
ANALYZER: auCDtect: CD records authenticity detector, version 0.8.2
Copyright (c) 2004 Oleg Berngardt. All rights reserved.
Copyright (c) 2004 Alexander Djourik. All rights reserved.
FILE: 01. Prophecy.flac
Size: 53447652 Hash: 4EC2E3A6180F07A50120A1895D63D391 Accuracy: -m0
Conclusion: CDDA 99%
Signature: 33E1ED5AC1B9F5FF8B2246F4ADDB12B2C58DC56C
FILE: 02. Shield of Water.flac
Size: 68183224 Hash: 242726A710B226490FBA43EDE50CB497 Accuracy: -m0
Conclusion: CDDA 100%
Signature: 65E602B123BD0178796A1BB1B3CB73FBBA3B5078
FILE: 03. Anatolia.flac
Size: 89220173 Hash: 5C5B210AD031DD422508F4E3C3542F02 Accuracy: -m0
Conclusion: CDDA 100%
Signature: F9DB490D9D4799EA4883E8364CFE7280AE6B21DB

Об исполнителе (группе)

Biography:
Stonila is a greek band established in 2015.They try to capture the sound of the olive tree leaves that fly to the rocky mountains.The myth talks about Ulysses sailing the Atlantic ocean but Stonila is real and they make a musical journey in missisipi's mud.

Об альбоме (сборнике)

released March 13, 2018
[cybertorrent.ru].t41189.torrent 
Торрент: Зарегистрирован [ 2018-03-17 18:55 ] · F15EFDAF29B73AF4A2562A26EB141FF727205F22

Скачать .torrent

Скачать

17 KB

Статус: проверено
Скачан: 0 раз
Размер: 202 MB
Профиль [ЛС]
Показать сообщения:    

Текущее время: 22-Апр 23:49

Часовой пояс: UTC ± 0



Вы не можете начинать темы
Вы не можете отвечать на сообщения
Вы не можете редактировать свои сообщения
Вы не можете удалять свои сообщения
Вы не можете голосовать в опросах
Вы не можете прикреплять файлы к сообщениям
Вы можете скачивать файлы