Статистика раздачи
Размер:  2,18 GB   |    Зарегистрирован:  1 месяц 5 дней   |    Скачан:  0 раз

Полного источника не было: Никогда

 
   
 
 

666 ®

Пол:
Не указан
Стаж:
2 месяца 7 дней
Сообщений:
232

Квадрат / The Square
Страна: Швеция, Германия, Франция, Дания
Жанр: драма, комедия
Год выпуска: 2017
Продолжительность: 02:31:24
Перевод: Профессиональный (многоголосый закадровый) - студия "Мельница"
Субтитры: нет
Режиссер: Рубен Эстлунд / Ruben Östlund
В ролях: Клас Банг, Элизабет Мосс, Доминик Уэст, Терри Нотари, Кристофер Лессо, Марина Шипченко, Элихадро Эдуард, Даниэль Халлберг, Шартин Шёдер, Софи Хэмилтон
Описание: «Квадрат» — новый экспонат шведской галереи, призванный вызывать у горожан приступы любви и альтруизма. По крайней мере, так задумал куратор Кристиан с внешностью и сладкой жизнью Марчелло Мастрояни: коллеги, арт-тусовка, девушки — все от него без ума. Но когда средь бела дня у Кристиана крадут бумажник и телефон, он садится в свою Теслу и пускается в авантюру-реванш. Поначалу шутливое наказание воришек приводит к последствиям, которые заставят Кристиана забыть и «Квадрат», и его заповеди.
Качество видео: BDRip [The.Square.2017.BDREMUX.1080p.ExKinoRay]
Формат видео: AVI
Видео: 704x384 (1.83:1), 24 fps, XviD build 73 ~1611 kbps avg, 0.25 bit/pixel
Аудио: 48 kHz, AC3 Dolby Digital, 3/2 (L,C,R,l,r) + LFE ch, ~448 kbps

MediaInfo

General
Complete name : H:\The.Square.2017.bdrip_[2.18]_[teko].avi
Format : AVI
Format/Info : Audio Video Interleave
Format profile : OpenDML
File size : 2.18 GiB
Duration : 2h 31mn
Overall bit rate : 2 065 Kbps
Writing application : VirtualDubMod 1.5.10.3 | www.virtualdub-fr.org || (build 2550/release)
Writing library : VirtualDubMod build 2550/release
Video
ID : 0
Format : MPEG-4 Visual
Format profile : Advanced Simple@L5
Format settings, BVOP : 2
Format settings, QPel : No
Format settings, GMC : No warppoints
Format settings, Matrix : Custom
Codec ID : XVID
Codec ID/Hint : XviD
Duration : 2h 31mn
Bit rate : 1 606 Kbps
Width : 704 pixels
Height : 384 pixels
Display aspect ratio : 1.85:1
Frame rate : 24.000 fps
Color space : YUV
Chroma subsampling : 4:2:0
Bit depth : 8 bits
Scan type : Progressive
Compression mode : Lossy
Bits/(Pixel*Frame) : 0.248
Stream size : 1.70 GiB (78%)
Writing library : XviD 73
Audio
ID : 1
Format : AC-3
Format/Info : Audio Coding 3
Mode extension : CM (complete main)
Format settings, Endianness : Big
Codec ID : 2000
Duration : 2h 31mn
Bit rate mode : Constant
Bit rate : 448 Kbps
Channel(s) : 6 channels
Channel positions : Front: L C R, Side: L R, LFE
Sampling rate : 48.0 KHz
Frame rate : 31.250 fps (1536 spf)
Compression mode : Lossy
Stream size : 484 MiB (22%)
Alignment : Split accross interleaves
Interleave, duration : 42 ms (1.00 video frame)
Interleave, preload duratio : 500 ms

Скриншоты

Релиз группы:
--
[cybertorrent.ru].t41198.torrent 
Торрент: Зарегистрирован [ 2018-03-17 18:55 ] · 4BB31CB6184EB84DC192D4AADA117867A59EF37A

Скачать .torrent

Скачать

11 KB

Статус: проверено
Скачан: 0 раз
Размер: 2,18 GB
Профиль [ЛС]
Показать сообщения:    

Текущее время: 22-Апр 23:44

Часовой пояс: UTC ± 0



Вы не можете начинать темы
Вы не можете отвечать на сообщения
Вы не можете редактировать свои сообщения
Вы не можете удалять свои сообщения
Вы не можете голосовать в опросах
Вы не можете прикреплять файлы к сообщениям
Вы можете скачивать файлы