Статистика раздачи
Размер:  2,19 GB   |    Зарегистрирован:  1 месяц 6 дней   |    Скачан:  0 раз

Полного источника не было: Никогда

 
   
 
 

Симка ®

Пол:
Не указан
Стаж:
2 месяца 9 дней
Сообщений:
262

Тотем волка / Wolf Totem / Le dernier loup
Страна: Китай, Франция
Жанр: приключения
Год выпуска: 2015
Продолжительность: 02:01:16
Перевод: Любительский (двухголосый закадровый) - Студия Пиратского Дубляжа
Субтитры: английские
Оригинальная аудиодорожка: китайский
Режиссер: Жан-Жак Анно / Jean-Jacques Annaud
В ролях: Уилльям Фэн, Шон До, Ба Сэнь Чжа Бу, Анкхньям Рачаа, Йин Жучен, Баойингексиж
Описание: Экранизация одноименного романа китайского писателя Цзян Жуна (сосланного во время «культурной революции» на перевоспитание во Внутреннюю Монголию на 11 лет). Середина 1960-х, молодой пекинский студент Чен приезжает жить во Внутреннюю Монголию — обучать грамоте кочевых пастухов. Но он сам учится у кочевников жить в гармонии с природой. Почитать бога Тенгри. В волке уважать хищника. Тотем волка развевается над юртой мудрого главы племени. До прихода народных революционеров и до захвата зеленых пастбищ переселенцами из Восточного Китая люди и волки жили, понимая и уважая друг друга. Пока древний уклад не был нарушен.
Качество видео: BDRip [Totem.Volka.BDRemux.mkv]
Формат видео: AVI
Видео: 720x320 (2.25:1), 24 fps, XviD build 73 ~1928 kbps avg, 0.35 bit/pixel
Аудио: 48 kHz, AC3 Dolby Digital, 2/0 (L,R) ch, ~192 kbps - двухголосый
Аудио: 48 kHz, AC3 Dolby Digital, 3/2 (L,C,R,l,r) + LFE ch, ~448 kbps - оригинал
Формат субтитров: softsub (SRT)

MediaInfo

General
Complete name : H:\Wolf.Totem.2015.bdrip_[2.18]_[teko]\Wolf.Totem.2015.bdrip_[2.18].avi
Format : AVI
Format/Info : Audio Video Interleave
Format profile : OpenDML
File size : 2.19 GiB
Duration : 2h 1mn
Overall bit rate : 2 581 Kbps
Writing application : VirtualDubMod 1.5.10.3 | www.virtualdub-fr.org || (build 2550/release)
Writing library : VirtualDubMod build 2550/release
Video
ID : 0
Format : MPEG-4 Visual
Format profile : Advanced Simple@L5
Format settings, BVOP : 2
Format settings, QPel : No
Format settings, GMC : No warppoints
Format settings, Matrix : Custom
Codec ID : XVID
Codec ID/Hint : XviD
Duration : 2h 1mn
Bit rate : 1 924 Kbps
Width : 720 pixels
Height : 320 pixels
Display aspect ratio : 2.25:1
Frame rate : 24.000 fps
Color space : YUV
Chroma subsampling : 4:2:0
Bit depth : 8 bits
Scan type : Progressive
Compression mode : Lossy
Bits/(Pixel*Frame) : 0.348
Stream size : 1.63 GiB (75%)
Writing library : XviD 73
Audio #1
ID : 1
Format : AC-3
Format/Info : Audio Coding 3
Mode extension : CM (complete main)
Format settings, Endianness : Big
Codec ID : 2000
Duration : 2h 1mn
Bit rate mode : Constant
Bit rate : 192 Kbps
Channel(s) : 2 channels
Channel positions : Front: L R
Sampling rate : 48.0 KHz
Frame rate : 31.250 fps (1536 spf)
Compression mode : Lossy
Stream size : 167 MiB (7%)
Alignment : Split accross interleaves
Interleave, duration : 42 ms (1.00 video frame)
Interleave, preload duratio : 500 ms
Audio #2
ID : 2
Format : AC-3
Format/Info : Audio Coding 3
Mode extension : CM (complete main)
Format settings, Endianness : Big
Codec ID : 2000
Duration : 2h 1mn
Bit rate mode : Constant
Bit rate : 448 Kbps
Channel(s) : 6 channels
Channel positions : Front: L C R, Side: L R, LFE
Sampling rate : 48.0 KHz
Frame rate : 31.250 fps (1536 spf)
Compression mode : Lossy
Stream size : 389 MiB (17%)
Alignment : Split accross interleaves
Interleave, duration : 42 ms (1.00 video frame)
Interleave, preload duratio : 500 ms
Релиз группы:
--
[cybertorrent.ru].t41206.torrent 
Торрент: Зарегистрирован [ 2018-03-17 18:55 ] · A3484D1535FDF9B3D31C0A630211A25FD5EA42F0

Скачать .torrent

Скачать

12 KB

Статус: проверено
Скачан: 0 раз
Размер: 2,19 GB
Профиль [ЛС]
Показать сообщения:    

Текущее время: 24-Апр 14:04

Часовой пояс: UTC ± 0



Вы не можете начинать темы
Вы не можете отвечать на сообщения
Вы не можете редактировать свои сообщения
Вы не можете удалять свои сообщения
Вы не можете голосовать в опросах
Вы не можете прикреплять файлы к сообщениям
Вы можете скачивать файлы