Статистика раздачи
Размер:  556 MB   |    Зарегистрирован:  2 месяца 5 дней   |    Скачан:  0 раз

Полного источника не было: Никогда

 
   
 
 

Влад ®

Пол:
Не указан
Стаж:
3 месяца 7 дней
Сообщений:
180

FallujahCollection


Жанр: Progressive/Technical/Death Metal
Носитель: CD
Год издания: 2013-2014
Издатель (лейбл): Unique Leader Records
Номер по каталогу: ULR12048-2/ULR12058-2
Страна исполнителя (группы): United States
Аудиокодек: FLAC (*.flac)
Тип рипа: tracks+.cue
Битрейт аудио: lossless
Продолжительность: 59:49
Источник (релизер): metalshock
Наличие сканов в содержимом раздачи: да

2013 - Nomadic (EP) (2016 ULR12048-2) (18:12)

01. The Dead Sea (06:34)
02. Silent (05:03)
03. Venom upon the Blade (06:34)

Лог создания рипа

Exact Audio Copy V1.1 from 23. June 2015
EAC extraction logfile from 15. March 2018, 7:37
Fallujah / Nomadic
Used drive : HL-DT-STBDDVDRW UH12NS30 Adapter: 1 ID: 0
Read mode : Secure
Utilize accurate stream : Yes
Defeat audio cache : Yes
Make use of C2 pointers : No
Read offset correction : 6
Overread into Lead-In and Lead-Out : No
Fill up missing offset samples with silence : Yes
Delete leading and trailing silent blocks : No
Null samples used in CRC calculations : Yes
Used interface : Native Win32 interface for Win NT & 2000
Gap handling : Appended to previous track
Used output format : User Defined Encoder
Selected bitrate : 128 kBit/s
Quality : High
Add ID3 tag : No
Command line compressor : C:\Program Files (x86)\Exact Audio Copy\FLAC\FLAC.EXE
Additional command line options : -8 -V -T "ARTIST=%artist%" -T "TITLE=%title%" -T "ALBUM=%albumtitle%" -T "DATE=%year%" -T "TRACKNUMBER=%tracknr%" -T "TOTALTRACKS=%numtracks%" -T "GENRE=%genre%" -T "ALBUMARTIST=%albumartist%" -T "ALBUM ARTIST=%albumartist%" -T "COMMENT=EAC Secure Mode, Test & Copy, AccurateRip, FLAC -8" %source%
TOC of the extracted CD
Track | Start | Length | Start sector | End sector
---------------------------------------------------------
1 | 0:00.00 | 6:34.33 | 0 | 29582
2 | 6:34.33 | 5:03.32 | 29583 | 52339
3 | 11:37.65 | 6:33.58 | 52340 | 81872
Track 1
Filename F:\~ EAC Rips\01 - The Dead Sea.wav
Pre-gap length 0:00:02.00
Peak level 99.7 %
Extraction speed 3.6 X
Track quality 100.0 %
Test CRC 58DF9B76
Copy CRC 58DF9B76
Accurately ripped (confidence 2) [79BAB23B] (AR v2)
Copy OK
Track 2
Filename F:\~ EAC Rips\02 - Silent.wav
Peak level 98.8 %
Extraction speed 1.3 X
Track quality 99.9 %
Test CRC C89FEE04
Copy CRC C89FEE04
Accurately ripped (confidence 2) [36FE791F] (AR v2)
Copy OK
Track 3
Filename F:\~ EAC Rips\03 - Venom Upon The Blade.wav
Peak level 99.7 %
Extraction speed 1.3 X
Track quality 99.9 %
Test CRC DE2B002E
Copy CRC DE2B002E
Accurately ripped (confidence 2) [24AFCA79] (AR v2)
Copy OK
All tracks accurately ripped
No errors occurred
End of status report
---- CUETools DB Plugin V2.1.6
[CTDB TOCID: jNL4sUN.vXIC72AII3WgaDO2pGw-] found
Submit result: jNL4sUN.vXIC72AII3WgaDO2pGw- has been confirmed
Track | CTDB Status
1 | (10/10) Accurately ripped
2 | (10/10) Accurately ripped
3 | (10/10) Accurately ripped
==== Log checksum D10059EB69B4FDD2847A0CA829C1CDC61B41EF7069D9309986131515272379D3 ====

Содержание индексной карты (.CUE)

REM GENRE "Progressive/Technical Death Metal"
REM DATE 2013
REM DISCID 2C044303
REM COMMENT "ExactAudioCopy v1.1"
PERFORMER "Fallujah"
TITLE "Nomadic"
FILE "01 - The Dead Sea.wav" WAVE
TRACK 01 AUDIO
TITLE "The Dead Sea"
PERFORMER "Fallujah"
FLAGS DCP
INDEX 01 00:00:00
FILE "02 - Silent.wav" WAVE
TRACK 02 AUDIO
TITLE "Silent"
PERFORMER "Fallujah"
FLAGS DCP
INDEX 01 00:00:00
FILE "03 - Venom Upon The Blade.wav" WAVE
TRACK 03 AUDIO
TITLE "Venom Upon The Blade"
PERFORMER "Fallujah"
FLAGS DCP
INDEX 01 00:00:00

Состав

Alex Hofmann - Vocals
Rob Maramonte - Guitars
Scott Carstairs - Guitars
Andrew Baird - Drums
Rob Morey - Bass

2014 - The Flesh Prevails (ULR12058-2) (41:37)

01. Starlit Path (05:27)
02. Carved from Stone (04:23)
03. The Night Reveals (04:17)
04. The Flesh Prevails (03:22)
05. Levitation (05:29)
06. Alone with You (03:02)
07. Allure (04:08)
08. Sapphire (05:30)
09. Chemical Cave (05:54)

Лог создания рипа

Exact Audio Copy V1.1 from 23. June 2015
EAC extraction logfile from 7. March 2018, 11:24
Fallujah / The Flesh Prevails
Used drive : HL-DT-STBDDVDRW UH12NS30 Adapter: 1 ID: 0
Read mode : Secure
Utilize accurate stream : Yes
Defeat audio cache : Yes
Make use of C2 pointers : No
Read offset correction : 6
Overread into Lead-In and Lead-Out : No
Fill up missing offset samples with silence : Yes
Delete leading and trailing silent blocks : No
Null samples used in CRC calculations : Yes
Used interface : Native Win32 interface for Win NT & 2000
Gap handling : Appended to previous track
Used output format : User Defined Encoder
Selected bitrate : 128 kBit/s
Quality : High
Add ID3 tag : No
Command line compressor : C:\Program Files (x86)\Exact Audio Copy\FLAC\FLAC.EXE
Additional command line options : -8 -V -T "ARTIST=%artist%" -T "TITLE=%title%" -T "ALBUM=%albumtitle%" -T "DATE=%year%" -T "TRACKNUMBER=%tracknr%" -T "TOTALTRACKS=%numtracks%" -T "GENRE=%genre%" -T "ALBUMARTIST=%albumartist%" -T "ALBUM ARTIST=%albumartist%" -T "COMMENT=EAC Secure Mode, Test & Copy, AccurateRip, FLAC -8" %source%
TOC of the extracted CD
Track | Start | Length | Start sector | End sector
---------------------------------------------------------
1 | 0:00.00 | 5:27.36 | 0 | 24560
2 | 5:27.36 | 4:22.69 | 24561 | 44279
3 | 9:50.30 | 4:17.10 | 44280 | 63564
4 | 14:07.40 | 3:22.59 | 63565 | 78773
5 | 17:30.24 | 5:29.39 | 78774 | 103487
6 | 22:59.63 | 3:02.28 | 103488 | 117165
7 | 26:02.16 | 4:08.33 | 117166 | 135798
8 | 30:10.49 | 5:30.66 | 135799 | 160614
9 | 35:41.40 | 5:55.06 | 160615 | 187245
Track 1
Filename F:\~ EAC Rips\01 - Starlit Path.wav
Pre-gap length 0:00:02.00
Peak level 99.8 %
Extraction speed 3.5 X
Track quality 100.0 %
Test CRC A77D744E
Copy CRC A77D744E
Accurately ripped (confidence 19) [1159D1F3] (AR v2)
Copy OK
Track 2
Filename F:\~ EAC Rips\02 - Carved From Stone.wav
Peak level 99.8 %
Extraction speed 1.1 X
Track quality 99.9 %
Test CRC F5B7E791
Copy CRC F5B7E791
Accurately ripped (confidence 19) [B78F5001] (AR v2)
Copy OK
Track 3
Filename F:\~ EAC Rips\03 - The Night Reveals.wav
Peak level 99.8 %
Extraction speed 1.3 X
Track quality 100.0 %
Test CRC 6E1B8489
Copy CRC 6E1B8489
Accurately ripped (confidence 19) [5A9FED9C] (AR v2)
Copy OK
Track 4
Filename F:\~ EAC Rips\04 - The Flesh Prevails.wav
Peak level 99.8 %
Extraction speed 1.4 X
Track quality 100.0 %
Test CRC 8C71CF8F
Copy CRC 8C71CF8F
Accurately ripped (confidence 19) [BB6A26FB] (AR v2)
Copy OK
Track 5
Filename F:\~ EAC Rips\05 - Levitation.wav
Peak level 99.8 %
Extraction speed 1.6 X
Track quality 100.0 %
Test CRC A3105FF5
Copy CRC A3105FF5
Accurately ripped (confidence 19) [015E17C4] (AR v2)
Copy OK
Track 6
Filename F:\~ EAC Rips\06 - Alone With You.wav
Peak level 99.8 %
Extraction speed 1.5 X
Track quality 100.0 %
Test CRC C418DB19
Copy CRC C418DB19
Accurately ripped (confidence 19) [079A1FDC] (AR v2)
Copy OK
Track 7
Filename F:\~ EAC Rips\07 - Allure.wav
Peak level 99.8 %
Extraction speed 1.7 X
Track quality 100.0 %
Test CRC EC7753C3
Copy CRC EC7753C3
Accurately ripped (confidence 19) [2394D25D] (AR v2)
Copy OK
Track 8
Filename F:\~ EAC Rips\08 - Sapphire.wav
Peak level 99.8 %
Extraction speed 1.8 X
Track quality 100.0 %
Test CRC DAAF1D70
Copy CRC DAAF1D70
Accurately ripped (confidence 19) [5784373A] (AR v2)
Copy OK
Track 9
Filename F:\~ EAC Rips\09 - Chemical Cave.wav
Peak level 99.8 %
Extraction speed 1.9 X
Track quality 100.0 %
Test CRC 67EC204F
Copy CRC 67EC204F
Accurately ripped (confidence 19) [ECD727C0] (AR v2)
Copy OK
All tracks accurately ripped
No errors occurred
End of status report
---- CUETools DB Plugin V2.1.6
[CTDB TOCID: 8zgzJ5OGtfxCZSUbzejwjORD3vk-] found
Submit result: 8zgzJ5OGtfxCZSUbzejwjORD3vk- has been confirmed
Track | CTDB Status
1 | (69/69) Accurately ripped
2 | (69/69) Accurately ripped
3 | (68/69) Accurately ripped
4 | (69/69) Accurately ripped
5 | (69/69) Accurately ripped
6 | (69/69) Accurately ripped
7 | (69/69) Accurately ripped
8 | (69/69) Accurately ripped
9 | (69/69) Accurately ripped
==== Log checksum 286C46A7C87B0014DA51F48DF79952E6F95C6DBD4E643474D2BC4C5F9CEE024A ====

Содержание индексной карты (.CUE)

REM GENRE "Progressive/Technical Death Metal"
REM DATE 2014
REM DISCID 7009C009
REM COMMENT "ExactAudioCopy v1.1"
PERFORMER "Fallujah"
TITLE "The Flesh Prevails"
FILE "01 - Starlit Path.wav" WAVE
TRACK 01 AUDIO
TITLE "Starlit Path"
PERFORMER "Fallujah"
INDEX 01 00:00:00
FILE "02 - Carved From Stone.wav" WAVE
TRACK 02 AUDIO
TITLE "Carved From Stone"
PERFORMER "Fallujah"
INDEX 01 00:00:00
FILE "03 - The Night Reveals.wav" WAVE
TRACK 03 AUDIO
TITLE "The Night Reveals"
PERFORMER "Fallujah"
INDEX 01 00:00:00
FILE "04 - The Flesh Prevails.wav" WAVE
TRACK 04 AUDIO
TITLE "The Flesh Prevails"
PERFORMER "Fallujah"
INDEX 01 00:00:00
FILE "05 - Levitation.wav" WAVE
TRACK 05 AUDIO
TITLE "Levitation"
PERFORMER "Fallujah"
INDEX 01 00:00:00
FILE "06 - Alone With You.wav" WAVE
TRACK 06 AUDIO
TITLE "Alone With You"
PERFORMER "Fallujah"
INDEX 01 00:00:00
FILE "07 - Allure.wav" WAVE
TRACK 07 AUDIO
TITLE "Allure"
PERFORMER "Fallujah"
INDEX 01 00:00:00
FILE "08 - Sapphire.wav" WAVE
TRACK 08 AUDIO
TITLE "Sapphire"
PERFORMER "Fallujah"
INDEX 01 00:00:00
FILE "09 - Chemical Cave.wav" WAVE
TRACK 09 AUDIO
TITLE "Chemical Cave"
PERFORMER "Fallujah"
INDEX 01 00:00:00

Состав

Alex Hofmann - Vocals
Scott Carstairs - Guitars
Brian James - Guitars
Andrew Baird - Drums
Rob Morey - Bass
[cybertorrent.ru].t41211.torrent 
Торрент: Зарегистрирован [ 2018-03-17 18:55 ] · 1890BFE4C1210F04B5F09E40403375CCD319C96E

Скачать .torrent

Скачать

14 KB

Статус: проверено
Скачан: 0 раз
Размер: 556 MB
Профиль [ЛС]
Показать сообщения:    

Текущее время: 22-Май 23:18

Часовой пояс: UTC ± 0



Вы не можете начинать темы
Вы не можете отвечать на сообщения
Вы не можете редактировать свои сообщения
Вы не можете удалять свои сообщения
Вы не можете голосовать в опросах
Вы не можете прикреплять файлы к сообщениям
Вы можете скачивать файлы