Статистика раздачи
Размер:  362 MB   |    Зарегистрирован:  1 месяц 5 дней   |    Скачан:  0 раз

Полного источника не было: Никогда

 
   
 
 

roxy ®

Пол:
Не указан
Стаж:
2 месяца 4 дня
Сообщений:
120

Ensemble Pygmalion, Raphaël Pichon / J.S.Bach - Köthener Trauermusik BWV 244a
Жанр: Classical sacred
Страна-производитель диска: Made in Austria
Год издания диска: 2014
Издатель (лейбл): Harmonia Mundi
Номер по каталогу: HMC 902211
Дата записи: 2014
Аудиокодек: FLAC
Тип рипа: image+.cue
Битрейт аудио: lossless
Продолжительность: 73:58
Источник: релизер
сайт-источник/ник/другое: odeonmusic
Наличие сканов в содержимом раздачи: да
Треклист:
Johann Sebastian Bach (1685-1750)
Köthener Trauermusik BWV 244a
Musique funèbre pour le Prince Léopold d'Anhalt-Köthen
Restitution Morgan Jourdain / Collaboration à la restitution : Raphaël Pichon
1. Abteilung
1 | 1. Chorus: Klagt, Kinder, klagt es aller Welt 4’45
2 | 2. Recitativo (A): O Land! Bestürztes Land! 1’22
3 | 3. Aria (A): Weh und Ach 3’46
4 | 4. Recitativo (T): Wie wenn der Blitze Grausamkeit 0’57
5 | 5. Aria (T): Zage nur, du treues Land 4’06
6 | 6. Recitativo (S): Ach ja! Wenn Tränen oder Blut 1’05
7 | 7. Chorus: Komm wieder, teurer Fürsten-Geist 4’06
2. Abteilung
8 | 8. “Dictum.” Chorus: Wir haben einen Gott, der da hilft 3’49
9 | 9. Recitativo (A): Betrübter Anblick voll Erschrecken 0’38
10 | 10. Aria (A): Erhalte mich 6’24
11 | 11. Recitativo (S): Jedoch der schwache Mensch erzittert nur 1’04
12 | 12. Aria (S): Mit Freuden sei die Welt verlassen 4’40
13 | 13. Recitativo (B): Wohl also dir 0’30
14 | 14. “Repetatur Dictum” Wir haben einen Gott, der da hilft 3’18
3. Abteilung
15 | 15. Aria (B): Lass, Leopold, dich nicht begraben 5’08
16 | 16. Recitativo (A): Wie könnt es möglich sein 0’50
17 | 17. Aria (A): Wird auch gleich nach tausend Zähren 4’18
18 | 18. Recitativo (T): Und, Herr, das ist die Spezerei 0’49
19 | 19. Aria a 2 Cori: Geh, Leopold, zu deiner Ruhe 4’32
4. Abteilung
20 | 20. Aria (B): Bleibet nur in eurer Ruh 5’45
21 | 21. Recitativo (S): Und du, betrübtes Fürstenhaus 1’27
22 | 22. Aria (S): Hemme dein gequältes Kränken 2’55
23 | 23. Recitativo (B): Nun scheiden wir 1’33
24 | 24. Chorus: Die Augen sehn nach deiner Leiche 6’06

Исполнители

Johann Sebastian Bach
Köthener Trauermusik BWV 244a
Солисты:
soprano - Sabine Devieilhe
alto - Damien Guillon
tenor - Thomas Hobbs
bass - Christian Immler
Оркестр и хор: Ensemble Pygmalion
Дирижер: Raphaël Pichon
Ensemble Pygmalion, Raphaël Pichon
CHOIR
Soprano - Anne-Marie Beaudette, Armelle Cardot Froeliger
Anne-Emmanuelle Davy, Violaine Le Chenadec, Lucie Van Baaren
Alto - Jean-Christophe Clair, Cécile Pilorger, Marie Pouchelon, Alexander Schneider
Tenor - Didier Chassaing, Davy Cornillot, Guillaume Gutierrez, Randol Rodriguez Rubio
Bass - Pau Bordas, Nicolas Boulanger, Geoffroy Heurard, Pierre Virly
ORCHESTRA
Konzertmeister - Sophie Gent
Violin I - Sophie Gent, Louis Créac’h, Béatrice Linon, Marie Rouquié
Violin II - Gabriel Grosbard, Cyrielle Eberhardt, Satomi Watanabe, David Wish
Viola - Jérôme Van Waerbeke, Kate Goodbehere
Viola da gamba - Julien Léonard, Myriam Rignol
Violoncello - Antoine Touche
Double bass - Christian Staude, Thomas de Pierrefeu (1, 7, 15)
Oboe - Jasu Moisio, Lidewei De Sterck
Flute - Georgia Browne, Anne Thivierge
Bassoon - Evolène Kiener
Organ - Sébastien Daucé
Harpsichord - Arnaud De Pasquale
Theorbo, archlute - Thomas Dunford
Lute - Diego Salamanca
Enregistrement mai 2014, Versailles, Chapelle royale
Audio CD (29 Sept. 2014)

Лог создания рипа

Exact Audio Copy V1.0 beta 4 from 7. December 2014
EAC extraction logfile from 22. March 2015, 10:03
Raphaël Pichon / J.S. Bach - Köthener Trauermusik - Raphael Pichon
Used drive : PLDS DVD-RW DA8A5SH Adapter: 1 ID: 0
Read mode : Secure
Utilize accurate stream : Yes
Defeat audio cache : Yes
Make use of C2 pointers : No
Read offset correction : 6
Overread into Lead-In and Lead-Out : No
Fill up missing offset samples with silence : Yes
Delete leading and trailing silent blocks : No
Null samples used in CRC calculations : Yes
Used interface : Native Win32 interface for Win NT & 2000
Used output format : User Defined Encoder
Selected bitrate : 1024 kBit/s
Quality : High
Add ID3 tag : No
Command line compressor : J:\EAC\Exact Audio Copy\Flac\flac.exe
Additional command line options : -8 -V -T "ARTIST=%artist%" -T "TITLE=%title%" -T "ALBUM=%albumtitle%" -T "DATE=%year%" -T "TRACKNUMBER=%tracknr%" -T "GENRE=%genre%" -T "PERFORMER=%albuminterpret%" -T "COMPOSER=%composer%" %haslyrics%--tag-from-file=LYRICS="%lyricsfile%"%haslyrics% -T "ALBUMARTIST=%albumartist%" -T "DISCNUMBER=%cdnumber%" -T "TOTALDISCS=%totalcds%" -T "TOTALTRACKS=%numtracks%" -T "COMMENT=%comment%" %source% -o %dest%
TOC of the extracted CD
Track | Start | Length | Start sector | End sector
---------------------------------------------------------
1 | 0:00.00 | 4:45.40 | 0 | 21414
2 | 4:45.40 | 1:22.22 | 21415 | 27586
3 | 6:07.62 | 3:46.11 | 27587 | 44547
4 | 9:53.73 | 0:56.58 | 44548 | 48805
5 | 10:50.56 | 4:06.05 | 48806 | 67260
6 | 14:56.61 | 1:05.49 | 67261 | 72184
7 | 16:02.35 | 4:06.39 | 72185 | 90673
8 | 20:08.74 | 3:49.17 | 90674 | 107865
9 | 23:58.16 | 0:38.35 | 107866 | 110750
10 | 24:36.51 | 6:23.54 | 110751 | 139529
11 | 31:00.30 | 1:03.72 | 139530 | 144326
12 | 32:04.27 | 4:39.62 | 144327 | 165313
13 | 36:44.14 | 0:30.13 | 165314 | 167576
14 | 37:14.27 | 3:18.18 | 167577 | 182444
15 | 40:32.45 | 5:07.54 | 182445 | 205523
16 | 45:40.24 | 0:49.68 | 205524 | 209266
17 | 46:30.17 | 4:18.43 | 209267 | 228659
18 | 50:48.60 | 0:49.40 | 228660 | 232374
19 | 51:38.25 | 4:32.08 | 232375 | 252782
20 | 56:10.33 | 5:45.30 | 252783 | 278687
21 | 61:55.63 | 1:27.39 | 278688 | 285251
22 | 63:23.27 | 2:55.48 | 285252 | 298424
23 | 66:19.00 | 1:33.29 | 298425 | 305428
24 | 67:52.29 | 6:05.66 | 305429 | 332869
Range status and errors
Selected range
Filename K:\Ripped\[7534] J.S. Bach – Köthener Trauermusik – Raphael Pichon\J.S. Bach - Köthener Trauermusik - Raphael Pichon.wav
Peak level 99.2 %
Extraction speed 3.3 X
Range quality 100.0 %
Test CRC 22ADBD25
Copy CRC 22ADBD25
Copy OK
No errors occurred
AccurateRip summary
Track 1 accurately ripped (confidence 4) [BAE0FCF1] (AR v2)
Track 2 accurately ripped (confidence 4) [626B6A3C] (AR v2)
Track 3 accurately ripped (confidence 4) [809160D2] (AR v2)
Track 4 accurately ripped (confidence 4) [8CBA5F73] (AR v2)
Track 5 accurately ripped (confidence 4) [36D0F808] (AR v2)
Track 6 accurately ripped (confidence 4) [CBBC843D] (AR v2)
Track 7 accurately ripped (confidence 4) [60110545] (AR v2)
Track 8 accurately ripped (confidence 4) [9D715BF8] (AR v2)
Track 9 accurately ripped (confidence 4) [58A78005] (AR v2)
Track 10 accurately ripped (confidence 4) [51D10505] (AR v2)
Track 11 accurately ripped (confidence 4) [14B05CC8] (AR v2)
Track 12 accurately ripped (confidence 4) [6C91AF20] (AR v2)
Track 13 accurately ripped (confidence 4) [37BE5A04] (AR v2)
Track 14 accurately ripped (confidence 4) [7758D3D1] (AR v2)
Track 15 accurately ripped (confidence 4) [541DE341] (AR v2)
Track 16 accurately ripped (confidence 4) [2BF2107B] (AR v2)
Track 17 accurately ripped (confidence 4) [E1D679CC] (AR v2)
Track 18 accurately ripped (confidence 4) [31B7F357] (AR v2)
Track 19 accurately ripped (confidence 4) [B4A35DC0] (AR v2)
Track 20 accurately ripped (confidence 4) [A00D6F65] (AR v2)
Track 21 accurately ripped (confidence 4) [BC2E1026] (AR v2)
Track 22 accurately ripped (confidence 4) [89F23F68] (AR v2)
Track 23 accurately ripped (confidence 4) [F1478BD8] (AR v2)
Track 24 accurately ripped (confidence 4) [EC22DA52] (AR v2)
All tracks accurately ripped
End of status report
==== Log checksum E68EED2CE7D379D0B1EA2B97771D3F340FC388008E6227152805C52E8FB145C4 ====

Содержание индексной карты (.CUE)

REM GENRE Classical
REM DATE 2014
REM DISCID 5E115618
REM COMMENT "ExactAudioCopy v1.0b4"
CATALOG 3149020221129
PERFORMER "Ensemble Pygmalion, Raphaël Pichon / Sabine Devieilhe (soprano), Damien Guillon (alto), Thomas Hobbs (tenor), Christian Immler (bass)"
TITLE "J.S. Bach - Köthener Trauermusik - Raphaël Pichon"
FILE "J.S. Bach - Köthener Trauermusik - Raphaël Pichon.flac" WAVE
TRACK 01 AUDIO
TITLE "KÖTHENER TRAUERMUSIK BWV 244a. Musique funèbre pour le Prince Léopold d'Anhalt-Köthen.
Restitution Morgan Jourdain / Collaboration à la restitution : Raphaël Pichon. 1. Abteilung. 1. Chorus: Klagt, Kinder, klagt es aller Welt"
PERFORMER "Ensemble Pygmalion, Raphaël Pichon"
ISRC FRZ141412010
INDEX 01 00:00:00
TRACK 02 AUDIO
TITLE "2. Recitativo (A): O Land! Bestürztes Land!"
PERFORMER "Ensemble Pygmalion, Raphaël Pichon, Damien Guillon (alto)"
ISRC FRZ141412020
INDEX 01 04:45:40
TRACK 03 AUDIO
TITLE "3. Aria (A): Weh und Ach"
PERFORMER "Ensemble Pygmalion, Raphaël Pichon, Damien Guillon (alto)"
ISRC FRZ141412030
INDEX 01 06:07:62
TRACK 04 AUDIO
TITLE "4. Recitativo (T): Wie wenn der Blitze Grausamkeit"
PERFORMER "Ensemble Pygmalion, Raphaël Pichon, Thomas Hobbs (tenor)"
ISRC FRZ141412040
INDEX 01 09:53:73
TRACK 05 AUDIO
TITLE "5. Aria (T): Zage nur, du treues Land"
PERFORMER "Ensemble Pygmalion, Raphaël Pichon, Thomas Hobbs (tenor)"
ISRC FRZ141412050
INDEX 01 10:50:56
TRACK 06 AUDIO
TITLE "6. Recitativo (S): Ach ja! Wenn Tränen oder Blut"
PERFORMER "Ensemble Pygmalion, Raphaël Pichon, Sabine Devieilhe (soprano)"
ISRC FRZ141412060
INDEX 01 14:56:61
TRACK 07 AUDIO
TITLE "7. Chorus: Komm wieder, teurer Fürsten-Geist"
PERFORMER "Ensemble Pygmalion, Raphaël Pichon"
ISRC FRZ141412070
INDEX 01 16:02:35
TRACK 08 AUDIO
TITLE "2. Abteilung. 8. “Dictum.” Chorus: Wir haben einen Gott, der da hilft"
PERFORMER "Ensemble Pygmalion, Raphaël Pichon"
ISRC FRZ141412080
INDEX 01 20:08:74
TRACK 09 AUDIO
TITLE "9. Recitativo (A): Betrübter Anblick voll Erschrecken"
PERFORMER "Ensemble Pygmalion, Raphaël Pichon, Damien Guillon (alto)"
ISRC FRZ141412090
INDEX 01 23:58:16
TRACK 10 AUDIO
TITLE "10. Aria (A): Erhalte mich"
PERFORMER "Ensemble Pygmalion, Raphaël Pichon, Damien Guillon (alto)"
ISRC FRZ141412100
INDEX 01 24:36:51
TRACK 11 AUDIO
TITLE "11. Recitativo (S): Jedoch der schwache Mensch erzittert nur"
PERFORMER "Ensemble Pygmalion, Raphaël Pichon, Sabine Devieilhe (soprano)"
ISRC FRZ141412110
INDEX 01 31:00:30
TRACK 12 AUDIO
TITLE "12. Aria (S): Mit Freuden sei die Welt verlassen"
PERFORMER "Ensemble Pygmalion, Raphaël Pichon, Sabine Devieilhe (soprano)"
ISRC FRZ141412120
INDEX 01 32:04:27
TRACK 13 AUDIO
TITLE "13. Recitativo (B): Wohl also dir"
PERFORMER "Ensemble Pygmalion, Raphaël Pichon, Christian Immler (bass)"
ISRC FRZ141412130
INDEX 01 36:44:14
TRACK 14 AUDIO
TITLE "14. “Repetatur Dictum” Wir haben einen Gott, der da hilft"
PERFORMER "Ensemble Pygmalion, Raphaël Pichon"
ISRC FRZ141412140
INDEX 01 37:14:27
TRACK 15 AUDIO
TITLE "3. Abteilung. 15. Aria (B): Lass, Leopold, dich nicht begraben"
PERFORMER "Ensemble Pygmalion, Raphaël Pichon, Christian Immler (bass)"
ISRC FRZ141412150
INDEX 01 40:32:45
TRACK 16 AUDIO
TITLE "16. Recitativo (A): Wie könnt es möglich sein"
PERFORMER "Ensemble Pygmalion, Raphaël Pichon, Damien Guillon (alto)"
ISRC FRZ141412160
INDEX 01 45:40:24
TRACK 17 AUDIO
TITLE "17. Aria (A): Wird auch gleich nach tausend Zähren"
PERFORMER "Ensemble Pygmalion, Raphaël Pichon, Damien Guillon (alto)"
ISRC FRZ141412170
INDEX 01 46:30:17
TRACK 18 AUDIO
TITLE "18. Recitativo (T): Und, Herr, das ist die Spezerei"
PERFORMER "Ensemble Pygmalion, Raphaël Pichon, Thomas Hobbs (tenor)"
ISRC FRZ141412180
INDEX 01 50:48:60
TRACK 19 AUDIO
TITLE "19. Aria a 2 Cori: Geh, Leopold, zu deiner Ruhe"
PERFORMER "Ensemble Pygmalion, Raphaël Pichon"
ISRC FRZ141412190
INDEX 01 51:38:25
TRACK 20 AUDIO
TITLE "4. Abteilung. 20. Aria (B): Bleibet nur in eurer Ruh"
PERFORMER "Ensemble Pygmalion, Raphaël Pichon, Christian Immler (bass)"
ISRC FRZ141412200
INDEX 01 56:10:33
TRACK 21 AUDIO
TITLE "21. Recitativo (S): Und du, betrübtes Fürstenhaus"
PERFORMER "Ensemble Pygmalion, Raphaël Pichon, Sabine Devieilhe (soprano)"
ISRC FRZ141412210
INDEX 01 61:55:63
TRACK 22 AUDIO
TITLE "22. Aria (S): Hemme dein gequältes Kränken"
PERFORMER "Ensemble Pygmalion, Raphaël Pichon, Sabine Devieilhe (soprano)"
ISRC FRZ141412220
INDEX 01 63:23:27
TRACK 23 AUDIO
TITLE "23. Recitativo (B): Nun scheiden wir"
PERFORMER "Ensemble Pygmalion, Raphaël Pichon, Christian Immler (bass)"
ISRC FRZ141412230
INDEX 01 66:19:00
TRACK 24 AUDIO
TITLE "24. Chorus: Die Augen sehn nach deiner Leiche"
PERFORMER "Ensemble Pygmalion, Raphaël Pichon"
ISRC FRZ141412240
INDEX 01 67:52:29

Доп. информация

When Leopold of Anhalt-Cöthen died in 1728, his former Kapellmeister had not forgotten the five brilliant years he had spent in the prince’s service. He dedicated to his memory a mourning cantata almost entirely based on the music of two major works of the mid-1720s, the Trauer-Ode and the St Matthew Passion. Although the score is lost, the wordbook and other sources of information have now made it possible to reconstruct the work. In his first recording for harmonia mundi, Raphaël Pichon invites us on an exciting musical treasure hunt.
Even today, study of the genesis of the major works of Bach can reveal numerous trails that are little explored by musicians themselves. While reading new material on the St Matthew Passion, after spending a great deal of time with Pygmalion on the sources of the B minor Mass, I became aware of the existence of what seemed to be a very ambitious piece of funeral music, the music for which is lost but nonetheless catalogued BWV 244a, in other words directly linked with the Passion in question. Although it is generally acknowledged today that only two of the four or five Passions composed by Bach are still extant, I was immediately fascinated to discover the existence of this Trauermusik, written in 1729 during a period that saw the birth of some of the Kantor’s greatest masterpieces, which was apparently his longest cantata, consisting of four parts.
A number of elements quickly make it clear that we are dealing here with a major event in Bach’s creative career. This is affect-laden music of mourning for a ‘beloved prince’, recalling an era of magnificent achievement for Bach, his years in the service of Prince Leopold of Anhalt-Cöthen. It comes from a key creative period in his life marked by two masterpieces, the Trauerode BWV 198 and the St Matthew Passion; and it provided a unique opportunity for the composer to perform his ‘best music’ outside Leipzig, where he was confined at that time. Here is a pivotal work in the Kantor’s corpus, one whose potential duration gives it an unprecedented situation. The combination of circumstances at once stimulated me to throw myself wholeheartedly into this new hunt for buried treasure.
[cybertorrent.ru].t41216.torrent 
Торрент: Зарегистрирован [ 2018-03-17 18:55 ] · B7EB3F144DDFCD8CC2B6F135428F99D1934F5278

Скачать .torrent

Скачать

15 KB

Статус: проверено
Скачан: 0 раз
Размер: 362 MB
Профиль [ЛС]
Показать сообщения:    

Текущее время: 22-Апр 23:39

Часовой пояс: UTC ± 0



Вы не можете начинать темы
Вы не можете отвечать на сообщения
Вы не можете редактировать свои сообщения
Вы не можете удалять свои сообщения
Вы не можете голосовать в опросах
Вы не можете прикреплять файлы к сообщениям
Вы можете скачивать файлы