Статистика раздачи
Размер:  237 MB   |    Зарегистрирован:  1 месяц 6 дней   |    Скачан:  0 раз

Полного источника не было: Никогда

 
   
 
 

Симка ®

Пол:
Не указан
Стаж:
2 месяца 8 дней
Сообщений:
262

Bucovina / Nestramutat [Nestrămutat]
Жанр: Folk Metal, Viking Metal
Носитель: CD
Страна-производитель диска (релиза): Romania
Год издания: 2015
Издатель (лейбл): Asociația Culturală Țara De Sus
Номер по каталогу: TDS-03
Страна исполнителя (группы): Romania
Аудиокодек: FLAC (*.flac)
Тип рипа: image+.cue
Битрейт аудио: lossless
Продолжительность: 31:36
Источник (релизер): bad69
Наличие сканов в содержимом раздачи: да
Треклист:
01. Incape-Ntr-O Vorba (Intro)
02. Da-Mi Mana, Toamna
03. Carari in Suflet
04. Ultima Iarna
05. Veacul Ruinei
06. La Apus
07. Sunt Munti Si Paduri (Bonus Track)
08. Nestramutati (Outro)

Лог создания рипа

Exact Audio Copy V1.1 from 23. June 2015
EAC extraction logfile from 16. April 2016, 9:55
Bucovina / Nestramutat
Used drive : HL-DT-STDVDRAM GH22NS70 Adapter: 1 ID: 0
Read mode : Secure
Utilize accurate stream : Yes
Defeat audio cache : Yes
Make use of C2 pointers : No
Read offset correction : 667
Overread into Lead-In and Lead-Out : No
Fill up missing offset samples with silence : Yes
Delete leading and trailing silent blocks : No
Null samples used in CRC calculations : Yes
Used interface : Native Win32 interface for Win NT & 2000
Used output format : User Defined Encoder
Selected bitrate : 896 kBit/s
Quality : High
Add ID3 tag : No
Command line compressor : C:\Program Files (x86)\Exact Audio Copy\flac.exe
Additional command line options : -6 -V %source%
TOC of the extracted CD
Track | Start | Length | Start sector | End sector
---------------------------------------------------------
1 | 0:00.00 | 1:20.62 | 0 | 6061
2 | 1:20.62 | 4:52.17 | 6062 | 27978
3 | 6:13.04 | 4:29.42 | 27979 | 48195
4 | 10:42.46 | 4:39.06 | 48196 | 69126
5 | 15:21.52 | 4:29.50 | 69127 | 89351
6 | 19:51.27 | 4:33.05 | 89352 | 109831
7 | 24:24.32 | 4:31.22 | 109832 | 130178
8 | 28:55.54 | 2:40.68 | 130179 | 142246
Range status and errors
Selected range
Filename E:\_my-cds\BUCOVINA [2015] [CD] Nestramutat (Asociatia Culturala Tara De Sus TDS-03)\Bucovina - Nestramutat.wav
Peak level 96.6 %
Extraction speed 6.5 X
Range quality 100.0 %
Test CRC CB34820D
Copy CRC CB34820D
Copy OK
No errors occurred
AccurateRip summary
Track 1 not present in database
Track 2 not present in database
Track 3 not present in database
Track 4 not present in database
Track 5 not present in database
Track 6 not present in database
Track 7 not present in database
Track 8 not present in database
None of the tracks are present in the AccurateRip database
End of status report
---- CUETools DB Plugin V2.1.6
[CTDB TOCID: sq6FpxEah32D2e3phMw8YV2KDgM-] found
Submit result: sq6FpxEah32D2e3phMw8YV2KDgM- has been confirmed
Track | CTDB Status
1 | (7/7) Accurately ripped
2 | (7/7) Accurately ripped
3 | (7/7) Accurately ripped
4 | (7/7) Accurately ripped
5 | (7/7) Accurately ripped
6 | (7/7) Accurately ripped
7 | (7/7) Accurately ripped
8 | (7/7) Accurately ripped
==== Log checksum 418157C7A48232BBF85AC5513CB075338EA7A445C02805548820673950616815 ====

Содержание индексной карты (.CUE)

REM GENRE "Black/Folk Metal"
REM DATE 2015
REM COMMENT 2015, România, Asociația Culturală Țara de Sus TDS-03
PERFORMER "Bucovina"
TITLE "Nestrămutat"
FILE "Bucovina - Nestramutat.flac" WAVE
TRACK 01 AUDIO
TITLE "Încape-ntr-o vorbă (intro)"
INDEX 01 00:00:00
TRACK 02 AUDIO
TITLE "Dă-mi mâna, toamnă"
INDEX 01 01:20:62
TRACK 03 AUDIO
TITLE "Cărări în suflet"
INDEX 00 06:12:72
INDEX 01 06:13:04
TRACK 04 AUDIO
TITLE "Ultima iarnă"
INDEX 00 10:41:32
INDEX 01 10:42:46
TRACK 05 AUDIO
TITLE "Veacul ruinei"
INDEX 00 15:21:03
INDEX 01 15:21:52
TRACK 06 AUDIO
TITLE "La apus"
INDEX 00 19:50:40
INDEX 01 19:51:27
TRACK 07 AUDIO
TITLE "Sunt munți și păduri (Bonus Track)"
INDEX 00 24:23:72
INDEX 01 24:24:32
TRACK 08 AUDIO
TITLE "Nestrămutați (outro)"
INDEX 00 28:55:09
INDEX 01 28:55:54

Лог проверки качества

-----------------------
DON'T MODIFY THIS FILE
-----------------------
PERFORMER: auCDtect Task Manager, ver. 1.6.0 RC1 build 1.6.0.1
Copyright (c) 2008-2010 y-soft. All rights reserved
http://y-soft.org
ANALYZER: auCDtect: CD records authenticity detector, version 0.8.2
Copyright (c) 2004 Oleg Berngardt. All rights reserved.
Copyright (c) 2004 Alexander Djourik. All rights reserved.
FILE: Bucovina - Nestramutat.flac
Size: 223842610 Hash: 1315DE8AC7E005527C602DCB74147C9F Accuracy: -m0
Conclusion: CDDA 100%
Signature: A1FE2EA69FF0F8F8793DCBA5CD48DAE754D847AC

Состав

Bogdan "Vifor" Mihu - Drums
Bogdan Luparu - Guitars, Vocals
Florin "Crivăţ" Ţibu - Guitars, Vocals
Jorge Augusto Coan - Bass
[cybertorrent.ru].t41225.torrent 
Торрент: Зарегистрирован [ 2018-03-17 18:55 ] · F9C41A62FB2FA4BAEAF5855487F6BD300A65F284

Скачать .torrent

Скачать

20 KB

Статус: проверено
Скачан: 0 раз
Размер: 237 MB
Профиль [ЛС]
Показать сообщения:    

Текущее время: 24-Апр 04:49

Часовой пояс: UTC ± 0



Вы не можете начинать темы
Вы не можете отвечать на сообщения
Вы не можете редактировать свои сообщения
Вы не можете удалять свои сообщения
Вы не можете голосовать в опросах
Вы не можете прикреплять файлы к сообщениям
Вы можете скачивать файлы