Статистика раздачи
Размер:  2,93 GB   |    Зарегистрирован:  1 месяц 6 дней   |    Скачан:  0 раз

Полного источника не было: Никогда

 
   
 
 

deltacatsplus ®

Пол:
Не указан
Стаж:
2 месяца 8 дней
Сообщений:
737

Живые / Выжить / Alive
Страна: США
Жанр: боевик, триллер, драма, приключения, история
Год выпуска: 1993
Продолжительность: 02:06:24
Перевод: Профессиональный (многоголосый закадровый)
Перевод: Профессиональный (двухголосый закадровый) - Премьер Видео
Перевод: Профессиональный (двухголосый закадровый) - НТВ+
Перевод: Авторский (одноголосый закадровый) - Андрей Гаврилов
Перевод: Авторский (одноголосый закадровый) - Юрий Живов
Субтитры: русские, английские
Оригинальная аудиодорожка: английский
Режиссер: Фрэнк Маршалл / Frank Marshall
В ролях: Итан Хоук, Винсент Спано, Джош Хэмилтон, Сэм Беренс, Дэвид Кригел, Брюс Рэмси, Кевин Брезнэхэн, Джейк Карпентер, Майкл Де Лоренцо, Или Китс, Хосе Зунига, Джек Нозуорти, Дэнни Нуччи, Джон Хэймс Ньютон, Иллеана Дуглас, Кристиан Меоли
Описание: Осенью 1972 года в пятницу тринадцатого октября над Андами потерпел катастрофу авиалайнер, на борту которого находилась школьная сборная по регби из Уругвая. Самолет рухнул на высокогорное плато, которое было полностью отрезано от внешнего мира. Здесь, среди дикой стужи и трупов, горстке оставшихся в живых школьников предстоял жестокий, нечеловеческий тест на выживание. Семьдесят два бесконечных, мучительных дня молодые люди боролись за свою жизнь. Убежищем им служили обломки самолета, пищей — тела погибших товарищей. Иногда приходится превратиться в зверя, чтобы остаться человеком…
Качество видео: WEB-DLRip [Выжить.1993.WEB-DLRip.720p.mkv]
Формат видео: AVI
Видео: 704x400 (1.76:1), 23.976 fps, XviD MPEG-4 ~1642 kbps avg, 0.24 bit/pixel
Аудио: 48 kHz, AC3 Dolby Digital, 3/2 (L,C,R,l,r) + LFE ch, ~448 kbps - многоголосый
Аудио: 48 kHz, AC3 Dolby Digital, 2/0 (L,R) ch, ~192 kbps - Премьер
Аудио: 48 kHz, AC3 Dolby Digital, 2/0 (L,R) ch, ~192 kbps - НТВ+
отдельными файлами:
Аудио: 48 kHz, AC3 Dolby Digital, 2/0 (L,R) ch, ~192 kbps - Гаврилов
Аудио: 48 kHz, AC3 Dolby Digital, 2/0 (L,R) ch, ~192 kbps - Живов
Аудио: 48 kHz, AC3 Dolby Digital, 3/2 (L,C,R,l,r) + LFE ch, ~448 kbps - оригинал
Формат субтитров: softsub (SRT)

MediaInfo

General
Complete name : H:\Alive.1993.web-dlrip_[2.18]_[teko]\Alive.1993.web-dlrip_[2.18].avi
Format : AVI
Format/Info : Audio Video Interleave
Format profile : OpenDML
File size : 2.19 GiB
Duration : 2h 6mn
Overall bit rate : 2 481 Kbps
Writing application : VirtualDubMod 1.5.10.3 | www.virtualdub-fr.org || (build 2550/release)
Writing library : VirtualDubMod build 2550/release
Video
ID : 0
Format : MPEG-4 Visual
Format profile : Advanced Simple@L5
Format settings, BVOP : 2
Format settings, QPel : No
Format settings, GMC : No warppoints
Format settings, Matrix : Custom
Codec ID : XVID
Codec ID/Hint : XviD
Duration : 2h 6mn
Bit rate : 1 625 Kbps
Width : 704 pixels
Height : 400 pixels
Display aspect ratio : 16:9
Frame rate : 23.976 (23976/1000) fps
Color space : YUV
Chroma subsampling : 4:2:0
Bit depth : 8 bits
Scan type : Progressive
Compression mode : Lossy
Bits/(Pixel*Frame) : 0.241
Stream size : 1.43 GiB (65%)
Writing library : XviD 73
Audio #1
ID : 1
Format : AC-3
Format/Info : Audio Coding 3
Mode extension : CM (complete main)
Format settings, Endianness : Big
Codec ID : 2000
Duration : 2h 6mn
Bit rate mode : Constant
Bit rate : 448 Kbps
Channel(s) : 6 channels
Channel positions : Front: L C R, Side: L R, LFE
Sampling rate : 48.0 KHz
Frame rate : 31.250 fps (1536 spf)
Compression mode : Lossy
Stream size : 405 MiB (18%)
Alignment : Split accross interleaves
Interleave, duration : 42 ms (1.00 video frame)
Interleave, preload duratio : 500 ms
Audio #2
ID : 2
Format : AC-3
Format/Info : Audio Coding 3
Mode extension : CM (complete main)
Format settings, Endianness : Big
Codec ID : 2000
Duration : 2h 6mn
Bit rate mode : Constant
Bit rate : 192 Kbps
Channel(s) : 2 channels
Channel positions : Front: L R
Sampling rate : 48.0 KHz
Frame rate : 31.250 fps (1536 spf)
Compression mode : Lossy
Stream size : 174 MiB (8%)
Alignment : Split accross interleaves
Interleave, duration : 42 ms (1.00 video frame)
Interleave, preload duratio : 500 ms
Audio #3
ID : 3
Format : AC-3
Format/Info : Audio Coding 3
Mode extension : CM (complete main)
Format settings, Endianness : Big
Codec ID : 2000
Duration : 2h 6mn
Bit rate mode : Constant
Bit rate : 192 Kbps
Channel(s) : 2 channels
Channel positions : Front: L R
Sampling rate : 48.0 KHz
Frame rate : 31.250 fps (1536 spf)
Compression mode : Lossy
Stream size : 174 MiB (8%)
Alignment : Split accross interleaves
Interleave, duration : 42 ms (1.00 video frame)
Interleave, preload duratio : 500 ms
Релиз группы:
--
[cybertorrent.ru].t41233.torrent 
Торрент: Зарегистрирован [ 2018-03-17 18:55 ] · 645B76A623E369A8EE892E69BA350CB2F7F0D83B

Скачать .torrent

Скачать

15 KB

Статус: проверено
Скачан: 0 раз
Размер: 2,93 GB
Профиль [ЛС]
Показать сообщения:    

Текущее время: 24-Апр 04:47

Часовой пояс: UTC ± 0



Вы не можете начинать темы
Вы не можете отвечать на сообщения
Вы не можете редактировать свои сообщения
Вы не можете удалять свои сообщения
Вы не можете голосовать в опросах
Вы не можете прикреплять файлы к сообщениям
Вы можете скачивать файлы