Статистика раздачи
Размер:  1,04 GB   |    Зарегистрирован:  1 месяц 4 дня   |    Скачан:  0 раз

Полного источника не было: Никогда

 
   
 
 

Катюшка ®

Пол:
Не указан
Стаж:
2 месяца 7 дней
Сообщений:
288

Jethro TullHeavy Horses (1978) (2018 New Shoes Edition 3CD)

Жанр: Prog Folk
Носитель: CD
Страна-производитель диска (релиза): E.U.
Год издания: 2018
Издатель (лейбл): Parlophone Records
Номер по каталогу: 0190295757915
Страна исполнителя (группы): United Kingdom
Аудиокодек: FLAC (*.flac)
Тип рипа: tracks+.cue
Битрейт аудио: lossless
Продолжительность: 03:06:14
Источник (релизер): Пожелал остаться неизвестным
Наличие сканов в содержимом раздачи: front/back

CD1 - Stereo Steven Wilson remixes (01:16:24)

01. …And The Mouse Police Never Sleeps
02. Acres Wild
03. No Lullaby
04. Moths
05. Journeyman
06. Rover
07. One Brown Mouse
08. Heavy Horses
09. Weathercock
Associated Recordings
10. Living In These Hard Times (Version Two)*
11. Everything In Our Lives*
12. Jack A Lynn* (early version)
13. Quatrain* (studio version)
14. Horse-Hoeing Husbandry*
15. Beltane
16. Botanic Man*
17. Living In These Hard Times (Version One)
18. Botanic Man Theme*

Лог создания рипа

Exact Audio Copy V1.3 from 2. September 2016
EAC extraction logfile from 14. March 2018, 0:46
Jethro Tull / Heavy Horses (New Shoes Edition CD1)
Used drive : HL-DT-STBD-RE WH14NS40 Adapter: 1 ID: 0
Read mode : Secure
Utilize accurate stream : Yes
Defeat audio cache : Yes
Make use of C2 pointers : No
Read offset correction : 6
Overread into Lead-In and Lead-Out : No
Fill up missing offset samples with silence : Yes
Delete leading and trailing silent blocks : No
Null samples used in CRC calculations : Yes
Used interface : Native Win32 interface for Win NT & 2000
Gap handling : Appended to previous track
Used output format : User Defined Encoder
Selected bitrate : 768 kBit/s
Quality : High
Add ID3 tag : No
Command line compressor : C:\Program Files (x86)\Exact Audio Copy\FLAC\FLAC.EXE
Additional command line options : -8 -V -T "ARTIST=%artist%" -T "TITLE=%title%" -T "ALBUM=%albumtitle%" -T "DATE=%year%" -T "TRACKNUMBER=%tracknr%" -T "TOTALTRACKS=%numtracks%" -T "GENRE=%genre%" -T "ALBUMARTIST=%albumartist%" -T "ALBUM ARTIST=%albumartist%" -T "COMMENT=EAC Secure Mode, Test & Copy, AccurateRip, FLAC -8" %source%
TOC of the extracted CD
Track | Start | Length | Start sector | End sector
---------------------------------------------------------
1 | 0:00.00 | 3:13.07 | 0 | 14481
2 | 3:13.07 | 3:26.03 | 14482 | 29934
3 | 6:39.10 | 7:53.28 | 29935 | 65437
4 | 14:32.38 | 3:31.08 | 65438 | 81270
5 | 18:03.46 | 4:01.08 | 81271 | 99353
6 | 22:04.54 | 4:33.21 | 99354 | 119849
7 | 26:38.00 | 3:24.05 | 119850 | 135154
8 | 30:02.05 | 9:04.41 | 135155 | 175995
9 | 39:06.46 | 4:04.68 | 175996 | 194363
10 | 43:11.39 | 3:19.70 | 194364 | 209358
11 | 46:31.34 | 3:23.28 | 209359 | 224611
12 | 49:54.62 | 3:49.42 | 224612 | 241828
13 | 53:44.29 | 3:51.20 | 241829 | 259173
14 | 57:35.49 | 4:12.21 | 259174 | 278094
15 | 61:47.70 | 5:21.62 | 278095 | 302231
16 | 67:09.57 | 3:14.67 | 302232 | 316848
17 | 70:24.49 | 3:09.64 | 316849 | 331087
18 | 73:34.38 | 2:49.10 | 331088 | 343772
Track 1
Filename D:\Jethro Tull - Heavy Horses (1978) [FLAC] {2018 New Shoes Edition 3CD + 2DVD}\Disc1of3\01 - And the Mouse Police Never Sleeps.wav
Pre-gap length 0:00:02.00
Peak level 99.6 %
Extraction speed 2.9 X
Track quality 100.0 %
Test CRC CC391C87
Copy CRC CC391C87
Track not present in AccurateRip database
Copy OK
Track 2
Filename D:\Jethro Tull - Heavy Horses (1978) [FLAC] {2018 New Shoes Edition 3CD + 2DVD}\Disc1of3\02 - Acres Wild.wav
Peak level 99.1 %
Extraction speed 3.2 X
Track quality 100.0 %
Test CRC 1FFAC801
Copy CRC 1FFAC801
Track not present in AccurateRip database
Copy OK
Track 3
Filename D:\Jethro Tull - Heavy Horses (1978) [FLAC] {2018 New Shoes Edition 3CD + 2DVD}\Disc1of3\03 - No Lullaby.wav
Peak level 99.5 %
Extraction speed 3.8 X
Track quality 100.0 %
Test CRC BC85E9C2
Copy CRC BC85E9C2
Track not present in AccurateRip database
Copy OK
Track 4
Filename D:\Jethro Tull - Heavy Horses (1978) [FLAC] {2018 New Shoes Edition 3CD + 2DVD}\Disc1of3\04 - Moths.wav
Peak level 99.0 %
Extraction speed 3.9 X
Track quality 100.0 %
Test CRC A5A5A723
Copy CRC A5A5A723
Track not present in AccurateRip database
Copy OK
Track 5
Filename D:\Jethro Tull - Heavy Horses (1978) [FLAC] {2018 New Shoes Edition 3CD + 2DVD}\Disc1of3\05 - Journeyman.wav
Peak level 98.8 %
Extraction speed 4.1 X
Track quality 100.0 %
Test CRC CD7E3B0B
Copy CRC CD7E3B0B
Track not present in AccurateRip database
Copy OK
Track 6
Filename D:\Jethro Tull - Heavy Horses (1978) [FLAC] {2018 New Shoes Edition 3CD + 2DVD}\Disc1of3\06 - Rover.wav
Peak level 99.0 %
Extraction speed 4.4 X
Track quality 100.0 %
Test CRC 18E14F94
Copy CRC 18E14F94
Track not present in AccurateRip database
Copy OK
Track 7
Filename D:\Jethro Tull - Heavy Horses (1978) [FLAC] {2018 New Shoes Edition 3CD + 2DVD}\Disc1of3\07 - One Brown Mouse.wav
Peak level 99.4 %
Extraction speed 4.4 X
Track quality 100.0 %
Test CRC 073443B9
Copy CRC 073443B9
Track not present in AccurateRip database
Copy OK
Track 8
Filename D:\Jethro Tull - Heavy Horses (1978) [FLAC] {2018 New Shoes Edition 3CD + 2DVD}\Disc1of3\08 - Heavy Horses.wav
Peak level 99.5 %
Extraction speed 5.2 X
Track quality 100.0 %
Test CRC 3CAD1DD9
Copy CRC 3CAD1DD9
Track not present in AccurateRip database
Copy OK
Track 9
Filename D:\Jethro Tull - Heavy Horses (1978) [FLAC] {2018 New Shoes Edition 3CD + 2DVD}\Disc1of3\09 - Weathercock.wav
Peak level 99.0 %
Extraction speed 5.1 X
Track quality 100.0 %
Test CRC 375B1169
Copy CRC 375B1169
Track not present in AccurateRip database
Copy OK
Track 10
Filename D:\Jethro Tull - Heavy Horses (1978) [FLAC] {2018 New Shoes Edition 3CD + 2DVD}\Disc1of3\10 - Living In These Hard Times (version 2, 2018 remix).wav
Peak level 100.0 %
Extraction speed 5.1 X
Track quality 100.0 %
Test CRC FC53CE8B
Copy CRC FC53CE8B
Track not present in AccurateRip database
Copy OK
Track 11
Filename D:\Jethro Tull - Heavy Horses (1978) [FLAC] {2018 New Shoes Edition 3CD + 2DVD}\Disc1of3\11 - Everything in Our Lives.wav
Peak level 99.2 %
Extraction speed 5.2 X
Track quality 100.0 %
Test CRC 6A2BC834
Copy CRC 6A2BC834
Track not present in AccurateRip database
Copy OK
Track 12
Filename D:\Jethro Tull - Heavy Horses (1978) [FLAC] {2018 New Shoes Edition 3CD + 2DVD}\Disc1of3\12 - Jack-a-Lynn (early version).wav
Peak level 64.9 %
Extraction speed 5.4 X
Track quality 100.0 %
Test CRC 5925670E
Copy CRC 5925670E
Track not present in AccurateRip database
Copy OK
Track 13
Filename D:\Jethro Tull - Heavy Horses (1978) [FLAC] {2018 New Shoes Edition 3CD + 2DVD}\Disc1of3\13 - Quatrain (studio version).wav
Peak level 99.0 %
Extraction speed 5.6 X
Track quality 100.0 %
Test CRC F12F43E5
Copy CRC F12F43E5
Track not present in AccurateRip database
Copy OK
Track 14
Filename D:\Jethro Tull - Heavy Horses (1978) [FLAC] {2018 New Shoes Edition 3CD + 2DVD}\Disc1of3\14 - Horse-Hoeing Husbandry.wav
Peak level 99.5 %
Extraction speed 5.9 X
Track quality 100.0 %
Test CRC 9EB43B09
Copy CRC 9EB43B09
Track not present in AccurateRip database
Copy OK
Track 15
Filename D:\Jethro Tull - Heavy Horses (1978) [FLAC] {2018 New Shoes Edition 3CD + 2DVD}\Disc1of3\15 - Beltane.wav
Peak level 99.6 %
Extraction speed 6.1 X
Track quality 100.0 %
Test CRC BF271F61
Copy CRC BF271F61
Track not present in AccurateRip database
Copy OK
Track 16
Filename D:\Jethro Tull - Heavy Horses (1978) [FLAC] {2018 New Shoes Edition 3CD + 2DVD}\Disc1of3\16 - Botanic Man.wav
Peak level 68.6 %
Extraction speed 3.8 X
Track quality 99.9 %
Test CRC E99F9E8F
Copy CRC E99F9E8F
Track not present in AccurateRip database
Copy OK
Track 17
Filename D:\Jethro Tull - Heavy Horses (1978) [FLAC] {2018 New Shoes Edition 3CD + 2DVD}\Disc1of3\17 - Living in These Hard Times (version 1).wav
Peak level 99.0 %
Extraction speed 5.8 X
Track quality 100.0 %
Test CRC 5345A9FD
Copy CRC 5345A9FD
Track not present in AccurateRip database
Copy OK
Track 18
Filename D:\Jethro Tull - Heavy Horses (1978) [FLAC] {2018 New Shoes Edition 3CD + 2DVD}\Disc1of3\18 - Botanic Man Theme.wav
Peak level 98.9 %
Extraction speed 5.9 X
Track quality 100.0 %
Test CRC C77BAF7D
Copy CRC C77BAF7D
Track not present in AccurateRip database
Copy OK
None of the tracks are present in the AccurateRip database
No errors occurred
End of status report
---- CUETools DB Plugin V2.1.6
[CTDB TOCID: NfRL4WaqLZQ3vRvzTH6Sv_6JYxI-] found
Submit result: already submitted
Track | CTDB Status
1 | (80/80) Accurately ripped
2 | (80/80) Accurately ripped
3 | (80/80) Accurately ripped
4 | (80/80) Accurately ripped
5 | (80/80) Accurately ripped
6 | (80/80) Accurately ripped
7 | (80/80) Accurately ripped
8 | (80/80) Accurately ripped
9 | (80/80) Accurately ripped
10 | (80/80) Accurately ripped
11 | (79/80) Accurately ripped
12 | (80/80) Accurately ripped
13 | (80/80) Accurately ripped
14 | (80/80) Accurately ripped
15 | (80/80) Accurately ripped
16 | (80/80) Accurately ripped
17 | (80/80) Accurately ripped
18 | (80/80) Accurately ripped
==== Log checksum C1657B37ED80B45B1D607374B1987B2F4317CD288FF1897A4C69EE5ADA4DC9E3 ====

Содержание индексной карты (.CUE)

REM GENRE "Progressive Rock"
REM DATE 1978
REM DISCID 0311E712
REM COMMENT "ExactAudioCopy v1.3"
PERFORMER "Jethro Tull"
TITLE "Heavy Horses (New Shoes Edition CD1)"
REM COMPOSER ""
FILE "01 - And the Mouse Police Never Sleeps.wav" WAVE
TRACK 01 AUDIO
TITLE "And the Mouse Police Never Sleeps"
PERFORMER "Jethro Tull"
REM COMPOSER ""
INDEX 01 00:00:00
FILE "02 - Acres Wild.wav" WAVE
TRACK 02 AUDIO
TITLE "Acres Wild"
PERFORMER "Jethro Tull"
REM COMPOSER ""
INDEX 01 00:00:00
FILE "03 - No Lullaby.wav" WAVE
TRACK 03 AUDIO
TITLE "No Lullaby"
PERFORMER "Jethro Tull"
REM COMPOSER ""
INDEX 01 00:00:00
FILE "04 - Moths.wav" WAVE
TRACK 04 AUDIO
TITLE "Moths"
PERFORMER "Jethro Tull"
REM COMPOSER ""
INDEX 01 00:00:00
FILE "05 - Journeyman.wav" WAVE
TRACK 05 AUDIO
TITLE "Journeyman"
PERFORMER "Jethro Tull"
REM COMPOSER ""
INDEX 01 00:00:00
FILE "06 - Rover.wav" WAVE
TRACK 06 AUDIO
TITLE "Rover"
PERFORMER "Jethro Tull"
REM COMPOSER ""
INDEX 01 00:00:00
FILE "07 - One Brown Mouse.wav" WAVE
TRACK 07 AUDIO
TITLE "One Brown Mouse"
PERFORMER "Jethro Tull"
REM COMPOSER ""
INDEX 01 00:00:00
FILE "08 - Heavy Horses.wav" WAVE
TRACK 08 AUDIO
TITLE "Heavy Horses"
PERFORMER "Jethro Tull"
REM COMPOSER ""
INDEX 01 00:00:00
FILE "09 - Weathercock.wav" WAVE
TRACK 09 AUDIO
TITLE "Weathercock"
PERFORMER "Jethro Tull"
REM COMPOSER ""
INDEX 01 00:00:00
FILE "10 - Living In These Hard Times (version 2, 2018 remix).wav" WAVE
TRACK 10 AUDIO
TITLE "Living In These Hard Times (version 2, 2018 remix)"
PERFORMER "Jethro Tull"
REM COMPOSER ""
INDEX 01 00:00:00
FILE "11 - Everything in Our Lives.wav" WAVE
TRACK 11 AUDIO
TITLE "Everything in Our Lives"
PERFORMER "Jethro Tull"
REM COMPOSER ""
INDEX 01 00:00:00
FILE "12 - Jack-a-Lynn (early version).wav" WAVE
TRACK 12 AUDIO
TITLE "Jack-a-Lynn (early version)"
PERFORMER "Jethro Tull"
REM COMPOSER ""
INDEX 01 00:00:00
FILE "13 - Quatrain (studio version).wav" WAVE
TRACK 13 AUDIO
TITLE "Quatrain (studio version)"
PERFORMER "Jethro Tull"
REM COMPOSER ""
INDEX 01 00:00:00
FILE "14 - Horse-Hoeing Husbandry.wav" WAVE
TRACK 14 AUDIO
TITLE "Horse-Hoeing Husbandry"
PERFORMER "Jethro Tull"
REM COMPOSER ""
INDEX 01 00:00:00
FILE "15 - Beltane.wav" WAVE
TRACK 15 AUDIO
TITLE "Beltane"
PERFORMER "Jethro Tull"
REM COMPOSER ""
INDEX 01 00:00:00
FILE "16 - Botanic Man.wav" WAVE
TRACK 16 AUDIO
TITLE "Botanic Man"
PERFORMER "Jethro Tull"
REM COMPOSER ""
INDEX 01 00:00:00
FILE "17 - Living in These Hard Times (version 1).wav" WAVE
TRACK 17 AUDIO
TITLE "Living in These Hard Times (version 1)"
PERFORMER "Jethro Tull"
REM COMPOSER ""
INDEX 01 00:00:00
FILE "18 - Botanic Man Theme.wav" WAVE
TRACK 18 AUDIO
TITLE "Botanic Man Theme"
PERFORMER "Jethro Tull"
REM COMPOSER ""
INDEX 01 00:00:00

CD2 - Live In Concert Berne, Switzerland, May 1978 - Jacko Jakszyk stereo remix - Part One (50:17)

01. Opening Music (Quartet)
02. Introduction by Claude Nobs
03. No Lullaby
04. Sweet Dream
05. Skating Away On The Thin Ice Of The New Day
06. Jack In The Green
07. One Brown Mouse
08. Heavy Horses
09. A New Day Yesterday
10. Flute Solo Improvisation / God Rest Ye Merry Gentlemen / Bouree
11. Living In The Past / A New Day Yesterday (reprise)
12. Songs From The Wood

Лог создания рипа

Exact Audio Copy V1.3 from 2. September 2016
EAC extraction logfile from 13. March 2018, 2:00
Jethro Tull / Heavy Horses (New Shoes Edition CD2)
Used drive : HL-DT-STBD-RE WH14NS40 Adapter: 1 ID: 0
Read mode : Secure
Utilize accurate stream : Yes
Defeat audio cache : Yes
Make use of C2 pointers : No
Read offset correction : 6
Overread into Lead-In and Lead-Out : No
Fill up missing offset samples with silence : Yes
Delete leading and trailing silent blocks : No
Null samples used in CRC calculations : Yes
Used interface : Native Win32 interface for Win NT & 2000
Gap handling : Appended to previous track
Used output format : User Defined Encoder
Selected bitrate : 768 kBit/s
Quality : High
Add ID3 tag : No
Command line compressor : C:\Program Files (x86)\Exact Audio Copy\FLAC\FLAC.EXE
Additional command line options : -8 -V -T "ARTIST=%artist%" -T "TITLE=%title%" -T "ALBUM=%albumtitle%" -T "DATE=%year%" -T "TRACKNUMBER=%tracknr%" -T "TOTALTRACKS=%numtracks%" -T "GENRE=%genre%" -T "ALBUMARTIST=%albumartist%" -T "ALBUM ARTIST=%albumartist%" -T "COMMENT=EAC Secure Mode, Test & Copy, AccurateRip, FLAC -8" %source%
TOC of the extracted CD
Track | Start | Length | Start sector | End sector
---------------------------------------------------------
1 | 0:00.00 | 2:48.62 | 0 | 12661
2 | 2:48.62 | 0:25.42 | 12662 | 14578
3 | 3:14.29 | 4:48.57 | 14579 | 36235
4 | 8:03.11 | 6:01.37 | 36236 | 63347
5 | 14:04.48 | 3:28.19 | 63348 | 78966
6 | 17:32.67 | 3:09.44 | 78967 | 93185
7 | 20:42.36 | 4:01.33 | 93186 | 111293
8 | 24:43.69 | 9:53.65 | 111294 | 155833
9 | 34:37.59 | 3:10.58 | 155834 | 170141
10 | 37:48.42 | 5:31.42 | 170142 | 195008
11 | 43:20.09 | 1:47.48 | 195009 | 203081
12 | 45:07.57 | 5:09.11 | 203082 | 226267
Track 1
Filename D:\Jethro Tull - Heavy Horses (1978) [FLAC] {2018 New Shoes Edition 3CD + 2DVD}\Disc2of3\01 - Opening Music (quartet).wav
Pre-gap length 0:00:02.00
Peak level 37.8 %
Extraction speed 0.9 X
Track quality 100.0 %
Test CRC 814A3436
Copy CRC 814A3436
Track not present in AccurateRip database
Copy OK
Track 2
Filename D:\Jethro Tull - Heavy Horses (1978) [FLAC] {2018 New Shoes Edition 3CD + 2DVD}\Disc2of3\02 - Introduction by Claude Nobs.wav
Peak level 70.7 %
Extraction speed 0.5 X
Track quality 99.5 %
Test CRC 388CCA3B
Copy CRC 388CCA3B
Track not present in AccurateRip database
Copy OK
Track 3
Filename D:\Jethro Tull - Heavy Horses (1978) [FLAC] {2018 New Shoes Edition 3CD + 2DVD}\Disc2of3\03 - No Lullaby.wav
Peak level 100.0 %
Extraction speed 1.2 X
Track quality 100.0 %
Test CRC 00C789A7
Copy CRC 00C789A7
Track not present in AccurateRip database
Copy OK
Track 4
Filename D:\Jethro Tull - Heavy Horses (1978) [FLAC] {2018 New Shoes Edition 3CD + 2DVD}\Disc2of3\04 - Sweet Dream.wav
Peak level 100.0 %
Extraction speed 1.3 X
Track quality 100.0 %
Test CRC 02F4ACA4
Copy CRC 02F4ACA4
Track not present in AccurateRip database
Copy OK
Track 5
Filename D:\Jethro Tull - Heavy Horses (1978) [FLAC] {2018 New Shoes Edition 3CD + 2DVD}\Disc2of3\05 - Skating Away on the Thin Ice of the New Day.wav
Peak level 69.1 %
Extraction speed 1.4 X
Track quality 100.0 %
Test CRC A657926A
Copy CRC A657926A
Track not present in AccurateRip database
Copy OK
Track 6
Filename D:\Jethro Tull - Heavy Horses (1978) [FLAC] {2018 New Shoes Edition 3CD + 2DVD}\Disc2of3\06 - Jack-in-the-Green.wav
Peak level 90.1 %
Extraction speed 1.3 X
Track quality 99.9 %
Test CRC EE85C9E6
Copy CRC EE85C9E6
Track not present in AccurateRip database
Copy OK
Track 7
Filename D:\Jethro Tull - Heavy Horses (1978) [FLAC] {2018 New Shoes Edition 3CD + 2DVD}\Disc2of3\07 - One Brown Mouse.wav
Peak level 81.1 %
Extraction speed 1.5 X
Track quality 100.0 %
Test CRC 7E7080D5
Copy CRC 7E7080D5
Track not present in AccurateRip database
Copy OK
Track 8
Filename D:\Jethro Tull - Heavy Horses (1978) [FLAC] {2018 New Shoes Edition 3CD + 2DVD}\Disc2of3\08 - Heavy Horses.wav
Peak level 100.0 %
Extraction speed 1.8 X
Track quality 100.0 %
Test CRC 2B3925E9
Copy CRC 2B3925E9
Track not present in AccurateRip database
Copy OK
Track 9
Filename D:\Jethro Tull - Heavy Horses (1978) [FLAC] {2018 New Shoes Edition 3CD + 2DVD}\Disc2of3\09 - A New Day Yesterday.wav
Peak level 91.0 %
Extraction speed 1.7 X
Track quality 100.0 %
Test CRC 6EB5BE44
Copy CRC 6EB5BE44
Track not present in AccurateRip database
Copy OK
Track 10
Filename D:\Jethro Tull - Heavy Horses (1978) [FLAC] {2018 New Shoes Edition 3CD + 2DVD}\Disc2of3\10 - Flute Solo Improvisation (God Rest Ye Merry Gentlemen , Bouree).wav
Peak level 88.1 %
Extraction speed 1.9 X
Track quality 100.0 %
Test CRC 8A63B77B
Copy CRC 8A63B77B
Track not present in AccurateRip database
Copy OK
Track 11
Filename D:\Jethro Tull - Heavy Horses (1978) [FLAC] {2018 New Shoes Edition 3CD + 2DVD}\Disc2of3\11 - Living in the Past (instrumental) - A New Day Yesterday (reprise).wav
Peak level 100.0 %
Extraction speed 1.6 X
Track quality 100.0 %
Test CRC 82672323
Copy CRC 82672323
Track not present in AccurateRip database
Copy OK
Track 12
Filename D:\Jethro Tull - Heavy Horses (1978) [FLAC] {2018 New Shoes Edition 3CD + 2DVD}\Disc2of3\12 - Songs From the Wood.wav
Peak level 100.0 %
Extraction speed 2.0 X
Track quality 100.0 %
Test CRC E32D21E9
Copy CRC E32D21E9
Track not present in AccurateRip database
Copy OK
None of the tracks are present in the AccurateRip database
No errors occurred
End of status report
---- CUETools DB Plugin V2.1.6
[CTDB TOCID: tYl4VjOQKCizCpKl1OHAa2GGueU-] found
Submit result: already submitted
Track | CTDB Status
1 | (69/69) Accurately ripped
2 | (69/69) Accurately ripped
3 | (69/69) Accurately ripped
4 | (69/69) Accurately ripped
5 | (69/69) Accurately ripped
6 | (69/69) Accurately ripped
7 | (69/69) Accurately ripped
8 | (69/69) Accurately ripped
9 | (69/69) Accurately ripped
10 | (69/69) Accurately ripped
11 | (69/69) Accurately ripped
12 | (69/69) Accurately ripped
==== Log checksum 539795090DC6697FEEA297B31F78ACB41E864BB00FE669218AB16F71BC84318D ====

Содержание индексной карты (.CUE)

REM GENRE "Progressive Rock"
REM DATE 1978
REM DISCID 9D0BC80C
REM COMMENT "ExactAudioCopy v1.3"
PERFORMER "Jethro Tull"
TITLE "Heavy Horses (New Shoes Edition CD2)"
REM COMPOSER ""
FILE "01 - Opening Music (quartet).wav" WAVE
TRACK 01 AUDIO
TITLE "Opening Music (quartet)"
PERFORMER "Jethro Tull"
REM COMPOSER ""
INDEX 01 00:00:00
FILE "02 - Introduction by Claude Nobs.wav" WAVE
TRACK 02 AUDIO
TITLE "Introduction by Claude Nobs"
PERFORMER "Jethro Tull"
REM COMPOSER ""
INDEX 01 00:00:00
FILE "03 - No Lullaby.wav" WAVE
TRACK 03 AUDIO
TITLE "No Lullaby"
PERFORMER "Jethro Tull"
REM COMPOSER ""
INDEX 01 00:00:00
FILE "04 - Sweet Dream.wav" WAVE
TRACK 04 AUDIO
TITLE "Sweet Dream"
PERFORMER "Jethro Tull"
REM COMPOSER ""
INDEX 01 00:00:00
FILE "05 - Skating Away on the Thin Ice of the New Day.wav" WAVE
TRACK 05 AUDIO
TITLE "Skating Away on the Thin Ice of the New Day"
PERFORMER "Jethro Tull"
REM COMPOSER ""
INDEX 01 00:00:00
FILE "06 - Jack-in-the-Green.wav" WAVE
TRACK 06 AUDIO
TITLE "Jack-in-the-Green"
PERFORMER "Jethro Tull"
REM COMPOSER ""
INDEX 01 00:00:00
FILE "07 - One Brown Mouse.wav" WAVE
TRACK 07 AUDIO
TITLE "One Brown Mouse"
PERFORMER "Jethro Tull"
REM COMPOSER ""
INDEX 01 00:00:00
FILE "08 - Heavy Horses.wav" WAVE
TRACK 08 AUDIO
TITLE "Heavy Horses"
PERFORMER "Jethro Tull"
REM COMPOSER ""
INDEX 01 00:00:00
FILE "09 - A New Day Yesterday.wav" WAVE
TRACK 09 AUDIO
TITLE "A New Day Yesterday"
PERFORMER "Jethro Tull"
REM COMPOSER ""
INDEX 01 00:00:00
FILE "10 - Flute Solo Improvisation (God Rest Ye Merry Gentlemen , Bouree).wav" WAVE
TRACK 10 AUDIO
TITLE "Flute Solo Improvisation (God Rest Ye Merry Gentlemen / Bouree)"
PERFORMER "Jethro Tull"
REM COMPOSER ""
INDEX 01 00:00:00
FILE "11 - Living in the Past (instrumental) - A New Day Yesterday (reprise).wav" WAVE
TRACK 11 AUDIO
TITLE "Living in the Past (instrumental) - A New Day Yesterday (reprise)"
PERFORMER "Jethro Tull"
REM COMPOSER ""
INDEX 01 00:00:00
FILE "12 - Songs From the Wood.wav" WAVE
TRACK 12 AUDIO
TITLE "Songs From the Wood"
PERFORMER "Jethro Tull"
REM COMPOSER ""
INDEX 01 00:00:00

CD3 - Live In Concert Berne, Switzerland, May 1978 - Jacko Jakszyk stereo remix - Part Two (59:34)

01. Thick As A Brick
02. Hunting Girl
03. Too Old To Rock ‘n’ Roll
04. Conundrum
05. Minstrel In The Gallery
06. Cross Eyed Mary
07. Quatrain
08. Aqualung
09. Locomotive Breath
10. The Dambusters March / Aqualung (reprise)

Лог создания рипа

Exact Audio Copy V1.3 from 2. September 2016
EAC extraction logfile from 14. March 2018, 10:26
Jethro Tull / Heavy Horses (New Shoes Edition CD3)
Used drive : HL-DT-STBD-RE WH14NS40 Adapter: 1 ID: 0
Read mode : Secure
Utilize accurate stream : Yes
Defeat audio cache : Yes
Make use of C2 pointers : No
Read offset correction : 6
Overread into Lead-In and Lead-Out : No
Fill up missing offset samples with silence : Yes
Delete leading and trailing silent blocks : No
Null samples used in CRC calculations : Yes
Used interface : Native Win32 interface for Win NT & 2000
Gap handling : Appended to previous track
Used output format : User Defined Encoder
Selected bitrate : 768 kBit/s
Quality : High
Add ID3 tag : No
Command line compressor : C:\Program Files (x86)\Exact Audio Copy\FLAC\FLAC.EXE
Additional command line options : -8 -V -T "ARTIST=%artist%" -T "TITLE=%title%" -T "ALBUM=%albumtitle%" -T "DATE=%year%" -T "TRACKNUMBER=%tracknr%" -T "TOTALTRACKS=%numtracks%" -T "GENRE=%genre%" -T "ALBUMARTIST=%albumartist%" -T "ALBUM ARTIST=%albumartist%" -T "COMMENT=EAC Secure Mode, Test & Copy, AccurateRip, FLAC -8" %source%
TOC of the extracted CD
Track | Start | Length | Start sector | End sector
---------------------------------------------------------
1 | 0:00.00 | 13:24.48 | 0 | 60347
2 | 13:24.48 | 5:33.25 | 60348 | 85347
3 | 18:57.73 | 3:51.34 | 85348 | 102706
4 | 22:49.32 | 8:02.64 | 102707 | 138920
5 | 30:52.21 | 5:28.38 | 138921 | 163558
6 | 36:20.59 | 4:24.16 | 163559 | 183374
7 | 40:45.00 | 1:37.33 | 183375 | 190682
8 | 42:22.33 | 8:08.13 | 190683 | 227295
9 | 50:30.46 | 5:32.73 | 227296 | 252268
10 | 56:03.44 | 3:29.74 | 252269 | 268017
Track 1
Filename D:\Jethro Tull - Heavy Horses (1978) [FLAC] {2018 New Shoes Edition 3CD + 2DVD}\Disc3of3\01 - Thick as a Brick.wav
Pre-gap length 0:00:02.00
Peak level 100.0 %
Extraction speed 1.3 X
Track quality 100.0 %
Test CRC 9EAC5A71
Copy CRC 9EAC5A71
Track not present in AccurateRip database
Copy OK
Track 2
Filename D:\Jethro Tull - Heavy Horses (1978) [FLAC] {2018 New Shoes Edition 3CD + 2DVD}\Disc3of3\02 - Hunting Girl.wav
Peak level 100.0 %
Extraction speed 1.4 X
Track quality 99.9 %
Test CRC 14AFC9E7
Copy CRC 14AFC9E7
Track not present in AccurateRip database
Copy OK
Track 3
Filename D:\Jethro Tull - Heavy Horses (1978) [FLAC] {2018 New Shoes Edition 3CD + 2DVD}\Disc3of3\03 - Too Old to Rock n Roll Too Young to Die.wav
Peak level 92.6 %
Extraction speed 1.5 X
Track quality 100.0 %
Test CRC 3D19D4DC
Copy CRC 3D19D4DC
Track not present in AccurateRip database
Copy OK
Track 4
Filename D:\Jethro Tull - Heavy Horses (1978) [FLAC] {2018 New Shoes Edition 3CD + 2DVD}\Disc3of3\04 - Conundrum.wav
Peak level 97.6 %
Extraction speed 1.8 X
Track quality 100.0 %
Test CRC BF68125F
Copy CRC BF68125F
Track not present in AccurateRip database
Copy OK
Track 5
Filename D:\Jethro Tull - Heavy Horses (1978) [FLAC] {2018 New Shoes Edition 3CD + 2DVD}\Disc3of3\05 - Minstrel in the Gallery.wav
Peak level 100.0 %
Extraction speed 1.8 X
Track quality 100.0 %
Test CRC 3BF3CA34
Copy CRC 3BF3CA34
Track not present in AccurateRip database
Copy OK
Track 6
Filename D:\Jethro Tull - Heavy Horses (1978) [FLAC] {2018 New Shoes Edition 3CD + 2DVD}\Disc3of3\06 - Cross-Eyed Mary.wav
Peak level 100.0 %
Extraction speed 1.9 X
Track quality 100.0 %
Test CRC A698BD70
Copy CRC A698BD70
Track not present in AccurateRip database
Copy OK
Track 7
Filename D:\Jethro Tull - Heavy Horses (1978) [FLAC] {2018 New Shoes Edition 3CD + 2DVD}\Disc3of3\07 - Quatrain.wav
Peak level 77.6 %
Extraction speed 1.6 X
Track quality 100.0 %
Test CRC C7A7E96D
Copy CRC C7A7E96D
Track not present in AccurateRip database
Copy OK
Track 8
Filename D:\Jethro Tull - Heavy Horses (1978) [FLAC] {2018 New Shoes Edition 3CD + 2DVD}\Disc3of3\08 - Aqualung.wav
Peak level 90.3 %
Extraction speed 2.1 X
Track quality 100.0 %
Test CRC 774E77CB
Copy CRC 774E77CB
Track not present in AccurateRip database
Copy OK
Track 9
Filename D:\Jethro Tull - Heavy Horses (1978) [FLAC] {2018 New Shoes Edition 3CD + 2DVD}\Disc3of3\09 - Locomotion Breath.wav
Peak level 100.0 %
Extraction speed 2.0 X
Track quality 99.9 %
Test CRC 5FBBB9D8
Copy CRC 5FBBB9D8
Track not present in AccurateRip database
Copy OK
Track 10
Filename D:\Jethro Tull - Heavy Horses (1978) [FLAC] {2018 New Shoes Edition 3CD + 2DVD}\Disc3of3\10 - The Dambusters March - Aqualung (reprise).wav
Peak level 92.3 %
Extraction speed 2.1 X
Track quality 100.0 %
Test CRC DA5BA870
Copy CRC DA5BA870
Track not present in AccurateRip database
Copy OK
None of the tracks are present in the AccurateRip database
No errors occurred
End of status report
---- CUETools DB Plugin V2.1.6
[CTDB TOCID: mt3U5z.VjY3ww2K4dUfentKeC48-] found
Submit result: already submitted
Track | CTDB Status
1 | (69/69) Accurately ripped
2 | (69/69) Accurately ripped
3 | (69/69) Accurately ripped
4 | (69/69) Accurately ripped
5 | (69/69) Accurately ripped
6 | (69/69) Accurately ripped
7 | (69/69) Accurately ripped
8 | (69/69) Accurately ripped
9 | (69/69) Accurately ripped
10 | (69/69) Accurately ripped
==== Log checksum 03C8919E1BE702AF2D146A371F5298ED4F3CD5C0CF006C2CFADBC7129B1F2B16 ====

Содержание индексной карты (.CUE)

REM GENRE "Progressive Rock"
REM DATE 1978
REM DISCID 820DF50A
REM COMMENT "ExactAudioCopy v1.3"
PERFORMER "Jethro Tull"
TITLE "Heavy Horses (New Shoes Edition CD3)"
REM COMPOSER ""
FILE "01 - Thick as a Brick.wav" WAVE
TRACK 01 AUDIO
TITLE "Thick as a Brick"
PERFORMER "Jethro Tull"
REM COMPOSER ""
INDEX 01 00:00:00
FILE "02 - Hunting Girl.wav" WAVE
TRACK 02 AUDIO
TITLE "Hunting Girl"
PERFORMER "Jethro Tull"
REM COMPOSER ""
INDEX 01 00:00:00
FILE "03 - Too Old to Rock n Roll Too Young to Die.wav" WAVE
TRACK 03 AUDIO
TITLE "Too Old to Rock n Roll Too Young to Die"
PERFORMER "Jethro Tull"
REM COMPOSER ""
INDEX 01 00:00:00
FILE "04 - Conundrum.wav" WAVE
TRACK 04 AUDIO
TITLE "Conundrum"
PERFORMER "Jethro Tull"
REM COMPOSER ""
INDEX 01 00:00:00
FILE "05 - Minstrel in the Gallery.wav" WAVE
TRACK 05 AUDIO
TITLE "Minstrel in the Gallery"
PERFORMER "Jethro Tull"
REM COMPOSER ""
INDEX 01 00:00:00
FILE "06 - Cross-Eyed Mary.wav" WAVE
TRACK 06 AUDIO
TITLE "Cross-Eyed Mary"
PERFORMER "Jethro Tull"
REM COMPOSER ""
INDEX 01 00:00:00
FILE "07 - Quatrain.wav" WAVE
TRACK 07 AUDIO
TITLE "Quatrain"
PERFORMER "Jethro Tull"
REM COMPOSER ""
INDEX 01 00:00:00
FILE "08 - Aqualung.wav" WAVE
TRACK 08 AUDIO
TITLE "Aqualung"
PERFORMER "Jethro Tull"
REM COMPOSER ""
INDEX 01 00:00:00
FILE "09 - Locomotion Breath.wav" WAVE
TRACK 09 AUDIO
TITLE "Locomotion Breath"
PERFORMER "Jethro Tull"
REM COMPOSER ""
INDEX 01 00:00:00
FILE "10 - The Dambusters March - Aqualung (reprise).wav" WAVE
TRACK 10 AUDIO
TITLE "The Dambusters March - Aqualung (reprise)"
PERFORMER "Jethro Tull"
REM COMPOSER ""
INDEX 01 00:00:00
[cybertorrent.ru].t41239.torrent 
Торрент: Зарегистрирован [ 2018-03-17 18:55 ] · 82EB1591898C084FB281879127EF150A6CD94688

Скачать .torrent

Скачать

17 KB

Статус: проверено
Скачан: 0 раз
Размер: 1,04 GB
Профиль [ЛС]
Показать сообщения:    

Текущее время: 22-Апр 15:57

Часовой пояс: UTC ± 0



Вы не можете начинать темы
Вы не можете отвечать на сообщения
Вы не можете редактировать свои сообщения
Вы не можете удалять свои сообщения
Вы не можете голосовать в опросах
Вы не можете прикреплять файлы к сообщениям
Вы можете скачивать файлы