Статистика раздачи
Размер:  312 MB   |    Зарегистрирован:  1 месяц 4 дня   |    Скачан:  0 раз

Полного источника не было: Никогда

 
   
 
 

Немауля ®

Пол:
Не указан
Стаж:
2 месяца 4 дня
Сообщений:
143

-- Жанр: Atmospheric Black Metal
Носитель: WEB
Страна-производитель диска (релиза): France
Год издания: 2018
Издатель (лейбл): Season of Mist Underground Activists
Номер по каталогу: SUA 086D
Страна исполнителя (группы): Ukraine
Аудиокодек: FLAC (*.flac)
Тип рипа: tracks
Битрейт аудио: lossless
Продолжительность: 00:43:30
Источник (релизер): Bandcamp
Наличие сканов в содержимом раздачи: Только обложка альбома

01. Накрита неба бурим дахом... (09:53)
02. У дахів іржавім колоссю... (08:43)
03. Вечірній смерк окутує кімнати... (09:29)
04. За зорею, що стрілою сяє... (06:45)
05. Білявий день втомився і притих... (08:40)

Лог проверки качества

-----------------------
DON'T MODIFY THIS FILE
-----------------------
PERFORMER: auCDtect Task Manager, ver. 1.6.0 RC1 build 1.6.0.1
Copyright (c) 2008-2010 y-soft. All rights reserved
http://y-soft.org
ANALYZER: auCDtect: CD records authenticity detector, version 0.8.2
Copyright (c) 2004 Oleg Berngardt. All rights reserved.
Copyright (c) 2004 Alexander Djourik. All rights reserved.
FILE: 05. Білявий день втомився і притих....flac
Size: 66986354 Hash: D80D83D00530BD50441A9EEDC66D4753 Accuracy: -m0
Conclusion: CDDA 100%
Signature: 93C7FEE625F8D7F0CE73A62C2311A8554B29F7A7
FILE: 04. За зорею, що стрілою сяє....flac
Size: 49491724 Hash: A1FC9FCF09D126A79D540EE83D5856CB Accuracy: -m0
Conclusion: CDDA 100%
Signature: 4996478E57365E19A895674BEF8A8445F1A698F5
FILE: 03. Вечірній смерк окутує кімнати....flac
Size: 73375447 Hash: 725A9C09C27E69C709510B68221EBB91 Accuracy: -m0
Conclusion: CDDA 100%
Signature: 9919452A2D9189F577EBDF1173A7DA191C6AFD8E
FILE: 02. У дахів іржавім колоссю....flac
Size: 65281594 Hash: 15C0A732FFE9ABD3C01DDF141C9EB27C Accuracy: -m0
Conclusion: CDDA 100%
Signature: 11718C538D72549B4A2E5465C22EEDE96878EAC7
FILE: 01. Накрита неба бурим дахом....flac
Size: 71857024 Hash: 84F708F1EB28A2751C7004000DB89A77 Accuracy: -m0
Conclusion: CDDA 100%
Signature: AA77480AB1BF138200AA7A82D1819A4AD921C969

Замер динамического диапазона «DR»

foobar2000 1.3.17 / Dynamic Range Meter 1.1.1
log date: 2018-03-15 19:42:40
--------------------------------------------------------------------------------
Analyzed: Drudkh / Їм часто сниться капіж
--------------------------------------------------------------------------------
DR Peak RMS Duration Track
--------------------------------------------------------------------------------
DR7 -0.22 dB -8.54 dB 9:53 01-Накрита неба бурим дахом...
DR7 -0.28 dB -8.77 dB 8:43 02-У дахів іржавім колоссю...
DR7 -0.27 dB -7.73 dB 9:29 03-Вечірній смерк окутує кімнати...
DR7 -0.24 dB -8.62 dB 6:45 04-За зорею, що стрілою сяє...
DR7 -0.24 dB -8.15 dB 8:40 05-Білявий день втомився і притих...
--------------------------------------------------------------------------------
Number of tracks: 5
Official DR value: DR7
Samplerate: 44100 Hz
Channels: 2
Bits per sample: 16
Bitrate: 1030 kbps
Codec: FLAC
================================================================================

Скриншот спектра частот

Об исполнителе (группе)

Об альбоме (сборнике)

Доп. информация

Issued in standard digipak with 16 page booklet.
Lyrics of Ukrainian poets were used on this album:
- Track 1: Bohdan Ihor Antonych "До холодних зір", 1936
- Track 2: Maik (Mykhailo) Yohansen "Я знаю: я загину", 1920
- Track 3: Бобинський Василь Петрович "Вечірня мелодія", 1917
- Track 4: Bohdan Ihor Antonych "За зорею, що стрілою сяє...", 1933
- Track 5: Филипович Павло Петрович "Білявий день втомився і притих...", 1922

Состав

Roman Sayenko - Guitars
Thurios - Guitars, Vocals
Krechet - Bass
Vlad - Drums, Keyboards
[cybertorrent.ru].t41240.torrent 
Торрент: Зарегистрирован [ 2018-03-17 18:55 ] · 2CDE836D0D86459CB2792838AAC705757DE87754

Скачать .torrent

Скачать

13 KB

Статус: проверено
Скачан: 0 раз
Размер: 312 MB
Профиль [ЛС]
Показать сообщения:    

Текущее время: 22-Апр 14:36

Часовой пояс: UTC ± 0



Вы не можете начинать темы
Вы не можете отвечать на сообщения
Вы не можете редактировать свои сообщения
Вы не можете удалять свои сообщения
Вы не можете голосовать в опросах
Вы не можете прикреплять файлы к сообщениям
Вы можете скачивать файлы