Статистика раздачи
Размер:  289 MB   |    Зарегистрирован:  1 месяц 6 дней   |    Скачан:  0 раз

Полного источника не было: Никогда

 
   
 
 

formosa ®

Пол:
Не указан
Стаж:
2 месяца 5 дней
Сообщений:
109

Them Moose Rush / Don't Pick Your Noise
Жанр: Alternative/Experimental/Progressive Rock
Носитель: WEB
Год издания: 2018
Издатель (лейбл): Web Release
Страна исполнителя (группы): Croatia
Аудиокодек: FLAC (*.flac)
Тип рипа: tracks
Битрейт аудио: lossless
Продолжительность: 43:24 min
Источник (релизер): bandcamp.com
Наличие сканов в содержимом раздачи:
Треклист:
1. Voodoo Stones. 1:43
2. Dumadu Honey. 4:14
3. Sea Quince. 4:46
4. Don't Pick Your Noise. 2:36
5. Stupid Face. 2:55
6. Lethal Dose of Pretty. 4:11
7. Anoie. 4:27
8. Dreydribble. 5:13
9. Radio Violence. 3:11
10. Nevermind Openmind. 3:45
11. Whim. 6:17

DRM.log

foobar2000 1.3.8 / Dynamic Range Meter 1.1.1
log date: 2018-03-15 22:53:10
--------------------------------------------------------------------------------
Analyzed: Them Moose Rush / Don't Pick Your Noise
--------------------------------------------------------------------------------
DR Peak RMS Duration Track
--------------------------------------------------------------------------------
DR7 -0.01 dB -11.40 dB 1:43 01-Voodoo Stones
DR7 -0.01 dB -10.09 dB 4:14 02-Dumadu Honey
DR8 -0.01 dB -10.19 dB 4:47 03-Sea Quince
DR9 -0.01 dB -10.92 dB 2:36 04-Don't Pick Your Noise
DR7 -0.01 dB -9.14 dB 2:55 05-Stupid Face
DR6 -0.01 dB -9.44 dB 4:12 06-Lethal Dose of Pretty
DR10 -0.01 dB -12.42 dB 4:27 07-Anoie
DR8 -0.01 dB -10.86 dB 5:14 08-Dreydribble
DR6 -0.01 dB -8.73 dB 3:11 09-Radio Violence
DR7 -0.01 dB -9.74 dB 3:46 10-Nevermind Openmind
DR7 -0.01 dB -9.70 dB 6:17 11-Whim
--------------------------------------------------------------------------------
Number of tracks: 11
Official DR value: DR8
Samplerate: 44100 Hz
Channels: 2
Bits per sample: 16
Bitrate: 969 kbps
Codec: FLAC
================================================================================

Лог проверки качества

-----------------------
DON'T MODIFY THIS FILE
-----------------------
PERFORMER: auCDtect Task Manager, ver. 1.6.0 RC1 build 1.6.0.1
Copyright (c) 2008-2010 y-soft. All rights reserved
http://y-soft.org
ANALYZER: auCDtect: CD records authenticity detector, version 0.8.2
Copyright (c) 2004 Oleg Berngardt. All rights reserved.
Copyright (c) 2004 Alexander Djourik. All rights reserved.
FILE: 01. Voodoo Stones.flac
Size: 9822909 Hash: 1648FC68A479F644D4927B0FD660AC21 Accuracy: -m0
Conclusion: CDDA 100%
Signature: 5338BEBA84EBEDF0D389A1AE972E441CE113130D
FILE: 02. Dumadu Honey.flac
Size: 28731408 Hash: 007EA3842F6C79710604F98FC605F2A4 Accuracy: -m0
Conclusion: CDDA 100%
Signature: 8F8CAD0D9EF45DC13A26C068707CE19D4F48D61D
FILE: 03. Sea Quince.flac
Size: 34445884 Hash: E1D2D9055710465D25BB9BAE57BEF57F Accuracy: -m0
Conclusion: CDDA 100%
Signature: 2392A5FA6F04B27CB564D9C26DDD7B0D89D37998
FILE: 04. Don't Pick Your Noise.flac
Size: 18252135 Hash: A153B829C853B827B3433BEBD9ACF6C9 Accuracy: -m0
Conclusion: CDDA 100%
Signature: D6E1D74F35E01E9DCFC34B69226FF7364EDAFFAA
FILE: 05. Stupid Face.flac
Size: 21627061 Hash: 840669A73DE3DF206D2BBFE0801E119E Accuracy: -m0
Conclusion: CDDA 100%
Signature: 041EFAAB6F2C8513AC12392D73ED424D633072A9
FILE: 06. Lethal Dose of Pretty.flac
Size: 28691381 Hash: 106AA4F35D617905C33336C4D012842E Accuracy: -m0
Conclusion: CDDA 100%
Signature: 5B20F36C43AEF8FA225ACBD0F2B05FFD1461FF72
FILE: 07. Anoie.flac
Size: 28769143 Hash: 5D95F1FCD6C0BAD0A1D5695D0288D07F Accuracy: -m0
Conclusion: CDDA 100%
Signature: 253856ED29DCEF4E5E397420339C711627564A61
FILE: 08. Dreydribble.flac
Size: 36489070 Hash: 00BF9562230A5B81EF1B3D2403B7E24B Accuracy: -m0
Conclusion: CDDA 100%
Signature: DE0997216BFD6A1B92D3B5B7DB19627AE5BFEEE2
FILE: 09. Radio Violence.flac
Size: 21737428 Hash: D27E857F8900B2FA6B96D1F985BCB679 Accuracy: -m0
Conclusion: CDDA 100%
Signature: 3EE5B5D68B290E6CF8007E8F0A6C30227F598B75
FILE: 10. Nevermind Openmind.flac
Size: 26882588 Hash: 22BE9FAB691A7E488C5E17D2BF3768AE Accuracy: -m0
Conclusion: CDDA 100%
Signature: 4A32866DA2B3F4F08993419700805C9B2BBBA9C9
FILE: 11. Whim.flac
Size: 45818339 Hash: D54FD493FABA102FBD4CA8D97FA2135B Accuracy: -m0
Conclusion: CDDA 100%
Signature: 057FFFDB6814E36DB9C26C9DA6E88630579ED6C1

Об исполнителе (группе)

Review:
Them Moose Rush is a progressive rock trio from Bjelovar, Croatia. Combining retro with modern, recording albums live and bursting with crazy jams, Them Moose Rush is a genuine riff machine constantly pushing forward and reinventing listeners perception of a standard rock and roll trio.

Об альбоме (сборнике)

released March 9, 2018
[cybertorrent.ru].t41241.torrent 
Торрент: Зарегистрирован [ 2018-03-17 18:55 ] · 5FF4C08B0DB666007E10AEAC99973D2420DA4D47

Скачать .torrent

Скачать

13 KB

Статус: проверено
Скачан: 0 раз
Размер: 289 MB
Профиль [ЛС]
Показать сообщения:    

Текущее время: 24-Апр 04:49

Часовой пояс: UTC ± 0



Вы не можете начинать темы
Вы не можете отвечать на сообщения
Вы не можете редактировать свои сообщения
Вы не можете удалять свои сообщения
Вы не можете голосовать в опросах
Вы не можете прикреплять файлы к сообщениям
Вы можете скачивать файлы