Статистика раздачи
Размер:  737 MB   |    Зарегистрирован:  6 месяцев 2 дня   |    Скачан:  0 раз

Полного источника не было: Никогда

 
   
 
 

soda ®

Пол:
Не указан
Стаж:
7 месяцев 4 дня
Сообщений:
228

На ринг вызывается...
Жанр: cпортивная драма
Год выпуска: 1979
Продолжительность: 01:25:13
Режиссёр: Эдуард Хачатуров
В ролях: Руфат Рискиев, Обиджан Юнусов, Бакен Кыдыкеева, Игорь Ледогоров, Эдуардс Павулс, Мурад Раджабов, Шухрат Иргашев, Фарида Муминова, Майя Эглите, Наби Рахимов, Джалол Юсупов, Абдрашид Абдрахманов, Алина Либерзон, Нилуфар Эргашева, Рустам Туляганов, Харийс Лиепиньш, Бахтияр Закиров
Описание: О Руфате Кудратове, его трудном пути к успеху, победе и славе боксера. В главной роли снялся заслуженный мастер спорта Руфат Рискиев.
Доп. информация:
Производство
Узбекфильм
Премьера
4 августа 1980 (СССР)
Диплом за исполнение мужской роли (Р.Рискиев) на ВКФ спортивных фильмов во Фрунзе-81.
Особая благодарность-BURATANG-в создании данной раздачи.

Семпл: https://www.sendspace.com/file/hle9b0
Качество видео: VHSRip
Формат видео: AVI
Видео: 640x288 (2,222), 25 fps, XviD build 1069 kbps.
Аудио: 44,1 kHz, MPEG Layer 3, 2 ch, ~128 kbps avg

MediaInfo

General
Полное имя : D:\На ринг вызывается.1979.avi
Формат : AVI
Формат/Информация : Audio Video Interleave
Размер файла : 737 MiB
Продолжительность : 1 h 25 min
Общий поток : 1 209 kb/s
Программа кодирования : Lavf56.40.101
Video
Идентификатор : 0
Формат : xvid
Идентификатор кодека : xvid
Продолжительность : 1 h 25 min
Битрейт : 1 069 kb/s
Ширина : 640 pixels
Высота : 288 pixels
Соотношение сторон : 2.222
Частота кадров : 25.000 FPS
Тип развёртки : Progressive
Бит/(Пиксели*Кадры) : 0.232
Размер потока : 651 MiB (88%)
Audio
Идентификатор : 1
Формат : MPEG Audio
Версия формата : Version 1
Профиль формата : Layer 3
Настройки формата : Joint stereo / MS Stereo
Идентификатор кодека : 55
Идентификатор кодека/Подсказка : MP3
Продолжительность : 1 h 25 min
Вид битрейта : Constant
Битрейт : 128 kb/s
Каналы : 2 channels
Частота : 44.1 kHz
Метод сжатия : Lossy
Размер потока : 78.0 MiB (11%)
Выравнивание : Aligned on interleaves
Продолжительность промежутка : 26 ms (0.65 video frame)
Время предзагрузки промежутка : 26 ms
Библиотека кодирования : LAME3.99.5
[cybertorrent.ru].t41261.torrent 
Торрент: Зарегистрирован [ 2018-03-17 18:55 ] · B2D5EBDFFA75133D83DCBF95C65B911E87FA9095

Скачать .torrent

Скачать

15 KB

Статус: проверено
Скачан: 0 раз
Размер: 737 MB
Профиль [ЛС]
Показать сообщения:    

Текущее время: 20-Сен 08:22

Часовой пояс: UTC ± 0



Вы не можете начинать темы
Вы не можете отвечать на сообщения
Вы не можете редактировать свои сообщения
Вы не можете удалять свои сообщения
Вы не можете голосовать в опросах
Вы не можете прикреплять файлы к сообщениям
Вы можете скачивать файлы
Torrents24.ru открытый BitTorrent Torrents24.pl открытый BitTorrent CyberTorrent.ru открытый BitTorrent BtList.ru рейтинг BitTorrent трекеров Яндекс.Метрика