Статистика раздачи
Размер:  331 MB   |    Зарегистрирован:  1 месяц 4 дня   |    Скачан:  0 раз

Полного источника не было: Никогда

Личеров:  6  [  0 KB/s  ]  
 
   
 
 

to-do-bay ®

Пол:
Не указан
Стаж:
2 месяца 5 дней
Сообщений:
100

Jacqueline du Pre, Daniel Barenboim - Elgar | Жаклин дю Пре, Даниэль Баренбойм - Элгар
Жанр: classical
Год выпуска диска: 2005
Производитель диска: Sony
Аудио кодек: FLAC
Тип рипа: image+.cue
Битрейт аудио: lossless
Это - одно из лучших, лучшее, на мой взгляд, исполнение виолончельного концерта Элгара.
Ростропович - когда услышал концерт Элгара в исполнении дю Пре - сказал, что он не будет больше его играть.
Концерт можно слушать многократно.
Вариации и марши тоже интересны.
Jacqueline du Pré [Жаклин дю Пре] (1945 – 1987)
Английская виолончелистка, известна своей совершенной техникой исполнения и яркими трактовками классического репертуара для виолончели, особенно музыки Элгара. Выступала с концертами за рубежом еще в юношеские годы, сделала много записей. Вышла замуж за израильского пианиста и дирижера Дэниэла Баренбойма в 1967, выступала в концертах в дуэте с мужем в качестве как пианиста, так и дирижера.
Музыкальная карьера дю Пре закончилась из-за рассеянного склероза. Последний концерт дю Пре был в 1973 году. Она умерла в возрасте 42 лет.
Daniel Barenboim [Даниэль Баренбойм] (1942)
Пианист, дирижер.
С середины 1970-х гг. Баренбойм стал одним из ведущих дирижеров мира. В 1975–89 гг. он главный дирижер Парижского симфонического оркестра («Де Пари»), в 1987–89 гг. — Парижской оперы, в 1991–2004 гг. — Чикагского симфонического оркестра, с 1992 г. — Немецкой государственной оперы (избран пожизненно музыкальным руководителем театра); он также постоянно дирижирует другими ведущими оркестрами мира, в том числе Берлинским, Израильским и Нью-Йоркским филармоническими оркестрами, с 1981 г. регулярно дирижирует оперным фестивалем в Байрейте.-Cello - Jacqueline Du Pré (tracks: 3 to 6) Виолончель - Жаклин дю Пре (3-6)
Composed By - Sir Edward Elgar композитор - Элгар
Conductor - Daniel Barenboim дирижер - Дэниел Баренбойм
Orchestra - London Philharmonic Orchestra* (tracks: 1, 2, 7 to 21) , Philadelphia Orchestra* (tracks: 3 to 6)

Tracklist

Pomp and Circumstance Marches, Op. 39
1 No. 1 in D Major (5:49)
2 No. 4 in G Major (5:16)
Concerto for Cello and Orchestra in E Minor, Op. 85
3 I. Adagio. Moderato (8:43)
4 II. Lento. Allegro molto (4:31)
5 III. Adagio (5:52)
6 IV. Allegro. Moderato. Allegro ma non troppo (12:05)

Variations on an Original Theme, Op. 36 "Enigma"
7 Theme. Andante (1:30)
8 Var. I. (C.A.E.). L'istesso tempo (2:13)
9 Var. II. (H.D.S.-P.). Allegro (0:48)
10 Var. III. (R.B.T.). Allegretto (1:26)
11 Var. IV. (W.M.B.). Allegro di molto (0:31)
12 Var. V. (R.P.A.). Moderato (2:11)
13 Var. VI. (Ysobel). Andantino (1:22)
14 Var. VII. (Troyte). Presto (0:59)
15 Var. VIII. (W.N.). Allegretto (1:55)
16 Var. IX. (Nimrod). Adagio (3:31)
17 Var. X. Intermezzo (Dorabella). Allegretto (2:37)
18 Var. XI. (G.R.S.). Allegro di molto (0:55)
19 Var. XII. (B.G.N.). Andante (2:37)
20 Var. XIII. Romanza (***). Moderato (2:38)
21 Var. XIV. Finale (E.D.U.). Allegro (5:09)

EAC log

Exact Audio Copy V0.99 prebeta 4 from 23. January 2008
EAC extraction logfile from 1. September 2008, 0:47
Jacqueline du Pré & Daniel Barenboim / Edward Elgar - Pomp & Circumstance Marches, Cello Concerto & Variations on an Original Theme
Used drive : LITE-ON DVDRW SOHW-832S Adapter: 2 ID: 0
Read mode : Secure
Utilize accurate stream : Yes
Defeat audio cache : Yes
Make use of C2 pointers : No
Read offset correction : 12
Overread into Lead-In and Lead-Out : No
Fill up missing offset samples with silence : Yes
Delete leading and trailing silent blocks : No
Null samples used in CRC calculations : Yes
Used interface : Native Win32 interface for Win NT & 2000
Used output format : User Defined Encoder
Selected bitrate : 768 kBit/s
Quality : High
Add ID3 tag : No
Command line compressor : C:\Program Files\Exact Audio Copy\FLAC\FLAC.EXE
Additional command line options : --best -V -T "ARTIST=%a" -T "TITLE=%t" -T "ALBUM=%g" -T "DATE=%y" -T "TRACKNUMBER=%n" -T "GENRE=%m" -T "COMMENT=%e" %s -o %d
TOC of the extracted CD
Track | Start | Length | Start sector | End sector
---------------------------------------------------------
1 | 0:00.00 | 5:54.64 | 0 | 26613
2 | 5:54.64 | 5:26.10 | 26614 | 51073
3 | 11:20.74 | 8:41.69 | 51074 | 90217
4 | 20:02.68 | 4:35.10 | 90218 | 110852
5 | 24:38.03 | 5:55.67 | 110853 | 137544
6 | 30:33.70 | 12:11.25 | 137545 | 192394
7 | 42:45.20 | 1:30.39 | 192395 | 199183
8 | 44:15.59 | 2:12.47 | 199184 | 209130
9 | 46:28.31 | 0:47.62 | 209131 | 212717
10 | 47:16.18 | 1:26.16 | 212718 | 219183
11 | 48:42.34 | 0:30.51 | 219184 | 221484
12 | 49:13.10 | 2:11.69 | 221485 | 231378
13 | 51:25.04 | 1:21.29 | 231379 | 237482
14 | 52:46.33 | 0:59.32 | 237483 | 241939
15 | 53:45.65 | 1:54.67 | 241940 | 250556
16 | 55:40.57 | 3:30.48 | 250557 | 266354
17 | 59:11.30 | 2:36.39 | 266355 | 278093
18 | 61:47.69 | 0:54.73 | 278094 | 282216
19 | 62:42.67 | 2:36.64 | 282217 | 293980
20 | 65:19.56 | 2:37.59 | 293981 | 305814
21 | 67:57.40 | 5:09.40 | 305815 | 329029
Range status and errors
Selected range
Filename Q:\eac\Jacqueline du Pré & Daniel Barenboim - Edward Elgar - Pomp & Circumstance Marches, Cello Concerto & Variations on an Original Theme.wav
Peak level 90.0 %
Range quality 100.0 %
Copy CRC 19361309
Copy OK
No errors occurred
AccurateRip summary
Track 1 accurately ripped (confidence 2) [11DD3E0D]
Track 2 accurately ripped (confidence 2) [A8C0C269]
Track 3 accurately ripped (confidence 2) [68A94E0E]
Track 4 accurately ripped (confidence 2) [14809B9D]
Track 5 accurately ripped (confidence 2) [C0CAC055]
Track 6 accurately ripped (confidence 2) [4A33D635]
Track 7 accurately ripped (confidence 2) [3DF87233]
Track 8 accurately ripped (confidence 2) [3BA309C8]
Track 9 accurately ripped (confidence 2) [4F8C501F]
Track 10 accurately ripped (confidence 2) [A92753AE]
Track 11 accurately ripped (confidence 2) [B580BC7A]
Track 12 accurately ripped (confidence 2) [2627598D]
Track 13 accurately ripped (confidence 2) [D088E280]
Track 14 accurately ripped (confidence 2) [08DFA9DE]
Track 15 accurately ripped (confidence 2) [EFC763C5]
Track 16 accurately ripped (confidence 2) [BCC01E95]
Track 17 accurately ripped (confidence 2) [49697049]
Track 18 accurately ripped (confidence 2) [27B297FD]
Track 19 accurately ripped (confidence 2) [F12DE232]
Track 20 accurately ripped (confidence 2) [1C61316B]
Track 21 accurately ripped (confidence 2) [5A802DD7]
All tracks accurately ripped
End of status report
[cybertorrent.ru].t41455.torrent 
Торрент: Зарегистрирован [ 2018-03-19 15:15 ] · 108043F6A84B2F7D08BE1541E91DA6AD2EC11F43

Скачать .torrent

Скачать

14 KB

Статус: проверено
Скачан: 0 раз
Размер: 331 MB
Профиль [ЛС]
Показать сообщения:    

Текущее время: 24-Апр 04:51

Часовой пояс: UTC ± 0



Вы не можете начинать темы
Вы не можете отвечать на сообщения
Вы не можете редактировать свои сообщения
Вы не можете удалять свои сообщения
Вы не можете голосовать в опросах
Вы не можете прикреплять файлы к сообщениям
Вы можете скачивать файлы