Статистика раздачи
Размер:  214 MB   |    Зарегистрирован:  1 месяц 3 дня   |    Скачан:  0 раз

Полного источника не было: Никогда

Личеров:  6  [  0 KB/s  ]  
 
   
 
 

roxy ®

Пол:
Не указан
Стаж:
2 месяца 4 дня
Сообщений:
120

Иван Козловский — Русские духовные песнопения (записи 1940–50-х гг.)
Жанр: Вокал/хор
Год выпуска диска: 2004
Производитель диска: Россия
Битрейт аудио: lossless
Аудио кодек: FLAC
Тип рипа: image+.cue
Продолжительность: 49:45-01. Благослови, душе моя, Господа — С. Рахманинов. Всенощное бдение
02. Блажен муж — С. Рахманинов. Всенощное бдение
03. Свете тихий — С. Рахманинов. Всенощное бдение
04. Ныне отпущаеши — С. Рахманинов. Всенощное бдение
05. Блажен разумеваяй — А. Архангельский
06. Ныне отпущаеши — Н. Соколов
07. Разбойника благоразумнаго — П. Чесноков
08. Да исправится молитва моя — Д. Бортнянский
09. Разбойника благоразумнаго — П. Воротников
10. В молитвах неусыпающую — Напев Киево-Печерской лавры
11. Приидите, последнее целование — Подобен «Егда от древа»
12. Ис полла эти деспота — Обиход
13. Христос воскрес (романс) — С. Рахманинов, слова Д. Мережковского
1—4: Государственная республиканская академическая капелла под управлением А. Юрлова (с концерта в Большом зале Московской консерватории, 02.03.1965)
5—7: Патриарший хор под управлением В. С. Комарова (с концерта в Большом зале Московской консерватории, 16.07.1948)
11—12: Большой хор Всесоюзного радио под управлением К. Б. Птицы
13: Академический симфонический оркестр Московской государственной филармонии под управлением И. Гусмана
(Про треки 8—10 в буклете информации нет.)

EAC log

Exact Audio Copy V0.99 prebeta 4 from 23. January 2008
Отчёт EAC об извлечении, выполненном 9. января 2009, 22:33
Ivan Kozlovsky / Russian religious hymns
Дисковод: Optiarc DVD RW AD-7200A Adapter: 3 ID: 1
Режим чтения : Достоверность
Использование точного потока : Да
Отключение кэша аудио : Да
Использование указателей C2 : Нет
Коррекция смещения при чтении : 48
Способность читать области Lead-in и Lead-out : Нет
Заполнение пропущенных сэмплов тишиной : Да
Удаление блоков с тишиной в начале и конце : Нет
При вычислениях CRC использовались нулевые сэмплы : Да
Интерфейс : Встроенный Win32-интерфейс для Win NT/2000
Выходной формат : Внутренние WAV-операции
Формат сэмплов : 44.100 Гц; 16 бит; стерео
TOC извлечённого CD
Трек | Старт | Длительность | Начальный сектор | Конечный сектор
---------------------------------------------------------------------
1 | 0:00.00 | 4:42.64 | 0 | 21213
2 | 4:42.64 | 5:31.47 | 21214 | 46085
3 | 10:14.36 | 2:49.15 | 46086 | 58775
4 | 13:03.51 | 3:08.24 | 58776 | 72899
5 | 16:12.00 | 8:19.04 | 72900 | 110328
6 | 24:31.04 | 3:49.56 | 110329 | 127559
7 | 28:20.60 | 2:32.72 | 127560 | 139031
8 | 30:53.57 | 5:48.59 | 139032 | 165190
9 | 36:42.41 | 2:18.11 | 165191 | 175551
10 | 39:00.52 | 2:31.26 | 175552 | 186902
11 | 41:32.03 | 3:09.18 | 186903 | 201095
12 | 44:41.21 | 1:49.39 | 201096 | 209309
13 | 46:30.60 | 3:13.47 | 209310 | 223831
Характеристики диапазона извлечения и сообщения об ошибках
Выбранный диапазон
Имя файла C:\Downloads\Audio\Ivan Kozlovsky - Russian religious hymns\Ivan Kozlovsky - Russian religious hymns.wav
Пиковый уровень 98.6 %
Качество диапазона 99.9 %
CRC копии 97005F4F
Копирование... OK
Ошибок не произошло
Конец отчёта
[cybertorrent.ru].t41458.torrent 
Торрент: Зарегистрирован [ 2018-03-19 15:15 ] · 6F99694DB3B9B7B3D9E1DED0247E996605C1CA61

Скачать .torrent

Скачать

18 KB

Статус: проверено
Скачан: 0 раз
Размер: 214 MB
Профиль [ЛС]
Показать сообщения:    

Текущее время: 22-Апр 15:54

Часовой пояс: UTC ± 0



Вы не можете начинать темы
Вы не можете отвечать на сообщения
Вы не можете редактировать свои сообщения
Вы не можете удалять свои сообщения
Вы не можете голосовать в опросах
Вы не можете прикреплять файлы к сообщениям
Вы можете скачивать файлы