Статистика раздачи
Размер:  668 MB   |    Зарегистрирован:  1 месяц 5 дней   |    Скачан:  0 раз

Полного источника не было: Никогда

Личеров:  6  [  0 KB/s  ]  
 
   
 
 

тэль ®

Пол:
Не указан
Стаж:
2 месяца 6 дней
Сообщений:
191

Handel - Atalanta (Аталанта) - Nicholas McGegan
Жанр: Classical opera
Страна-производитель диска: Manufactured in Japan
Год издания диска: 1993
Издатель (лейбл): Hungaroton
Номер по каталогу: HCD 12612 14-12
Дата записи: 1985
Аудиокодек: FLAC
Тип рипа: image+.cue
Битрейт аудио: lossless
Продолжительность: CD1: 45'15, CD2: 48'07, CD3: 46'33
Источник: релизер
сайт-источник/ник/другое: Fasch, подарок
Наличие сканов в содержимом раздачи: да

Треклист

CD1

1. Overture. [Allegro]
2. Overture. Allegro
3. Overture. Andante
4. Act 1. Arioso. Care seive, ombre beate
5. Recitativo. Sempre ti lagni, oh Tirsi?
6. Recitativo. Ecco Aminta!
7. Aria. Lascia ch'io parta solo
8. Recitativo. Ch'io rimanga con te?
9. Aria. S'è tuo piacer, ch'io mora
10. Recitativo. Perchè sospesa, oh figlia
11. Aria. Impara, ingrata
12. Recitativo. Ah! Che purtroppo adoro
13. Aria. Come alla tortorella langue
14. Arioso. Al varco, oh pastori!
15. Recitativo. Oh Tirsi, e tu, che per fama
16. Recitativo. Cerchi invano la morte
17. Sinfonia
18. Recitativo. Trattenetolo, oh fidi
19. Aria. Riportai gloriosa palma
20. Recitativo. Ah! che tu sei la fera
21. Aria. Non sarà poco

CD2

1. Act 2. Coro. Oggi rimbombano di feste
2. Recitativo. Sei pur sola una volta
3. Aria. Lassa! Ch'io t'ho perduta
4. Recitativo. Amarilli? - Oh Dei! qui Tirsi?
5. Duetto Amarilli? - Oh Dei, che vuoi?
6. Recitativo. Ah! ch'io ancora l'intendo!
7. Aria. Si, mel raccordero
8. Recitativo. Il mio caro pastore
9. Aria. Soffri in pace il tuo dolore
10. Recitativo. E'non moro d'affano?
11. Aria. Dì ad Irene, tiranna
12. Recitativo. Ma giunge il caro mio
13. Aria. M'allontano, sdegnose pupille
14. Recitativo. Poveri affetti miei!
15. Aria. Se nasce un rivoletto

CD3

1. Act 3. Sinfonia
2. Recitativo. E'dalla man di Tirsi
3. Aria. Bench'io non sappia ancor
4. Recitativo. Sono Irene? oppur sogno?
5. Aria. Diedi il core ad altra Ninfa
6. Recitativo. Ohimè! che pene!
7. Aria. Ben'io sento l'ingrata
8. Recitativo. Oh! del crudo mio
9. Recitativo. Quanto più ti contemplo
10. Arioso. Custodite, o dolci sogni
11. Recitativo. Il vo' morir...già corro
12. Recitativo. Re Meleagro
13. Recitativo. Oh forza del destin!
14. Duetto. Caro / Cara
15. Sinfonia
16. Accompagnato. Del supremo Tonante
17. Aria. Sol prova contenti
18. Coro. Dalla stirpe degli Eroi
19. Recitativo. Con voce giuliva
20. Coro. Gridiam tutti
21. Sinfonia Instrumentale
22. Gavotta
23. Coro. Viva la face, viva l'amor!
24. Coro. Con voce giuliva
25. Appendix. Recitativo. Oh forza del destin!
26. Appendix. Aria. Tu solcasti il mare infido

Треклист 2

CD1

Overture (1´20")
1 [Allegro] (1´20")
2 Allegro (2´09")
3 Andante (2´05")
Act 1
4 Arioso: Care selve, ombre beate MELEAGRO (1´55")
5 Recitativo: Sempre ti lagni, oh Tirsi? AMINTA, MELEAGRO (0´29")
6 Recitativo: Ecco Aminta! IRENE, AMINTA, MELEAGRO (0´42")
7 Aria: Lascia ch'io parta solo MELEAGRO (6´04")
8 Recitativo: Ch'io rimanga con te? IRENE, AMINTA (0´33")
9 Aria: S'è tuo piacer, ch'io mora AMINTA (6´25")
10 Recitativo: Perchè sospesa, oh figlia NICANDRO, IRENE (0´34")
11 Aria: Impara, ingrata NICANDRO (3´53")
12 Recitativo: Ah! Che purtroppo adoro IRENE (0´17")
13 Aria: Come allat tortorella langue IRENE (6´58")
14 Arioso: Al varco, oh pastori! ATALANTA (1´24")
15 Recitativo: Oh Tirsi, e tu, che per fama ATALANTA (0´34")
16 Recitativo: Cershi invano la morte IREN, AMINTA (0´11")
17 Sinfonia (0´06")
18 Recitativo: Trattenetolo, oh fidi ATALANTA, MELEAGRO (0´13")
19 Aria: Riportai gloriosa palma ATALANTA (3´35")
20 Recitativo: Ah! che tu sei la fera MELEAGRO (0´18")
21 Aria: Non sarà poco MELEAGRO (5´24")

CD2

1 Coro: Oggi rimbombano di feste CHORUS (2´40")
2 Recitativo: Sei pur sola una volta ATALANTA, MELEAGRO (1´14")
3 Aria: Lassa! ch'io t'ho perduta ATALANTA (8´41")
4 Recitativo: Amarilli? - Oh Dei! qui Tirsi? MELEAGRO, ATALANTA (1´04")
5 Duetto: Amarilli? - Oh Dei! che Vuoi? MELEAGRO, ATALANTA (5´22")
6 Recitativo: Ah! ch'io ancora l'intendo! MELEAGRO, IRENE (1´01")
7 Aria: Si, mel raccordero MELEAGRO (3´10")
8 Recitativo: Il mio caro pastore IRENE, AMINTA (0´43")
9 Aria: Soffri in pace il tuo dolore IRENE (4´55")
10 Recitativo: E'non moro d'affano? AMINTA, ATALANTA (0´25")
11 Aria: Di ad Irene, tiranna AMINTA (5´49")
12 Recitativo: Ma giunge il caro mio ATALANTA, MELEAGRO (0´46")
13 Aria: M'allontano, sdegnose pupille MELEAGRO (5´06")
14 Recitativo: Poveri affetti miei! ATALANTA (0´19")
15 Aria: Se nasce un rivoletto ATALANTA (6´53")

CD3

1 Sinfonia (1´09")
2 Recitativo: E'dalla man di Tirsi ATALANTA, IRENE (0´32")
3 Aria: Bench'io non sappia ancor ATALANTA (5´46")
4 Recitativo: Sono Irene? oppur sogno? IRENE, AMINTA (0´31")
5 Aria: Diedi il core ad altra Ninfa AMINTA (3´23")
6 Recitativo: Ohimè! che pene! IRENE, MELEAGRO, AMINTA (0´55")
7 Aria: Ben'io sento l'ingrata IRENE (2´31")
8 Recitativo: Oh! del crudo mio MELEAGRO (0´20")
9 Recitativo: Quanto più ti contemplo ATALANTA, MELEAGRO (0´41")
10 Arioso: Custodite, o dolci sogni ATALANTA (1´21")
11 Recitativo: Io vo' morir... già corro ATALANTA, MELEAGRO (0´43")
12 Recitativo: Re Meleagro NICANDRO (0´32")
13 Aria: Or trionfar ti fanno NICANDRO (1´59")
14 Recitativo: Oh forza del destin!
ATALANTA, MELEAGRO, IRENE, AMINTA (0´20")
15 Duetto: Caro/Cara ATALANTA, MELEAGRO (7´41")
16 Sinfonia (0´13")
17 Accompagnato Del supremo Tonante MERCURIO (1´25")
18 Aria: Sol prova contenti MERCURIO (6´15")
19 Coro: Dalla stirpe degli Eroi CHORUS (0´51")
20 Recitativo: Con voce giuliva MERCURIO (0´10")
21 Coro: Gridiam tutti CHORUS (0´26")
22 Sinfonia Instrumentale (0´26")
23 Coro: Viva la face, viva l'amor! CHORUS (0´42")
24 Gavotta (0´39")
25 Coro: Viva la face, viva l'amor! CHORUS (0´42")
26 Coro: Con voce giuliva CHORUS (0´20")
27 Recitativo: Oh forza destin!
ATALANTA, MELEAGRO, IRENE, AMINTA (0´20")
28 Aria: Tu solcasti il mare infido MELEAGRO (5´29")

Исполнители

George Frideric Handel
Atalanta, HWV 35
Written: 1736; London, England
Atalanta: Katalin Farkas, soprano
Meleagro: Éva Bártfai-Barta, soprano
Irene: Éva Lax, contralto
Aminta: János Bándi, tenor
Nicandro: József Gregor, bass
Mercurio: László Polgár, bass
Savaria Vocal Ensemble
Capella Savaria

Conductor: Nicholas McGegan
Recorded in 1985

Лог создания рипа

CD1

Exact Audio Copy V1.3 from 2. September 2016
EAC extraction logfile from 25. February 2017, 16:39
Farkas, Bártfai-Barta, Lax, Bándi, Gregor, Polgár (McGegan) / Handel - Atalanta - CD1
Used drive : HL-DT-STDVDRAM GSA-4081B Adapter: 1 ID: 1
Read mode : Secure
Utilize accurate stream : Yes
Defeat audio cache : Yes
Make use of C2 pointers : No
Read offset correction : 667
Overread into Lead-In and Lead-Out : No
Fill up missing offset samples with silence : Yes
Delete leading and trailing silent blocks : No
Null samples used in CRC calculations : Yes
Used interface : Native Win32 interface for Win NT & 2000
Used output format : User Defined Encoder
Selected bitrate : 768 kBit/s
Quality : High
Add ID3 tag : No
Command line compressor : C:\Program Files\Exact Audio Copy\FLAC\FLAC.EXE
Additional command line options : -6 -V -T "ARTIST=%artist%" -T "TITLE=%title%" -T "ALBUM=%albumtitle%" -T "DATE=%year%" -T "TRACKNUMBER=%tracknr%" -T "GENRE=%genre%" -T "COMMENT=%comment%" -T "BAND=%albuminterpret%" -T "ALBUMARTIST=%albuminterpret%" -T "COMPOSER=%composer%" %haslyrics%--tag-from-file=LYRICS="%lyricsfile%"%haslyrics% -T "DISCNUMBER=%cdnumber%" -T "TOTALDISCS=%totalcds%" -T "TOTALTRACKS=%numtracks%" %hascover%--picture="%coverfile%"%hascover% %source% -o %dest%
TOC of the extracted CD
Track | Start | Length | Start sector | End sector
---------------------------------------------------------
1 | 0:00.00 | 1:20.35 | 0 | 6034
2 | 1:20.35 | 2:08.57 | 6035 | 15691
3 | 3:29.17 | 2:10.65 | 15692 | 25506
4 | 5:40.07 | 1:54.53 | 25507 | 34109
5 | 7:34.60 | 0:28.45 | 34110 | 36254
6 | 8:03.30 | 0:42.00 | 36255 | 39404
7 | 8:45.30 | 6:03.70 | 39405 | 66699
8 | 14:49.25 | 0:32.60 | 66700 | 69159
9 | 15:22.10 | 6:24.52 | 69160 | 98011
10 | 21:46.62 | 0:33.73 | 98012 | 100559
11 | 22:20.60 | 3:53.07 | 100560 | 118041
12 | 26:13.67 | 0:17.30 | 118042 | 119346
13 | 26:31.22 | 6:58.15 | 119347 | 150711
14 | 33:29.37 | 1:23.55 | 150712 | 156991
15 | 34:53.17 | 0:33.63 | 156992 | 159529
16 | 35:27.05 | 0:10.57 | 159530 | 160336
17 | 35:37.62 | 0:06.28 | 160337 | 160814
18 | 35:44.15 | 0:13.35 | 160815 | 161824
19 | 35:57.50 | 3:34.57 | 161825 | 177931
20 | 39:32.32 | 0:17.43 | 177932 | 179249
21 | 39:50.00 | 5:24.57 | 179250 | 203606
Range status and errors
Selected range
Filename C:\Users\Miguel Angel\Downloads\Farkas, Bártfai-Barta, Lax, Bándi, Gregor, Polgár (McGegan) - Handel - Atalanta - CD1.wav
Peak level 91.0 %
Extraction speed 4.1 X
Range quality 99.9 %
Test CRC 7959FD0E
Copy CRC 7959FD0E
Copy OK
No errors occurred
AccurateRip summary
Track 1 accurately ripped (confidence 8) [F6FA31AB] (AR v2)
Track 2 accurately ripped (confidence 8) [59B011D7] (AR v2)
Track 3 accurately ripped (confidence 8) [93118DC1] (AR v2)
Track 4 accurately ripped (confidence 8) [52A33E42] (AR v2)
Track 5 accurately ripped (confidence 7) [97808494] (AR v2)
Track 6 accurately ripped (confidence 8) [C9777729] (AR v2)
Track 7 accurately ripped (confidence 8) [DB33CF39] (AR v2)
Track 8 accurately ripped (confidence 8) [F824EDDE] (AR v2)
Track 9 accurately ripped (confidence 8) [C889F84D] (AR v2)
Track 10 accurately ripped (confidence 8) [E31F2202] (AR v2)
Track 11 accurately ripped (confidence 8) [0D75DF17] (AR v2)
Track 12 accurately ripped (confidence 8) [D5C0F148] (AR v2)
Track 13 accurately ripped (confidence 8) [488ECE19] (AR v2)
Track 14 accurately ripped (confidence 8) [78D05DCB] (AR v2)
Track 15 accurately ripped (confidence 8) [78F09D19] (AR v2)
Track 16 accurately ripped (confidence 8) [3FB08083] (AR v2)
Track 17 accurately ripped (confidence 8) [EF314427] (AR v2)
Track 18 accurately ripped (confidence 8) [E9B3D185] (AR v2)
Track 19 accurately ripped (confidence 7) [B96EA902] (AR v2)
Track 20 accurately ripped (confidence 8) [BCA7C164] (AR v2)
Track 21 accurately ripped (confidence 8) [455E3B56] (AR v2)
All tracks accurately ripped
End of status report
---- CUETools DB Plugin V2.1.6
[CTDB TOCID: yP5Av4GHvmWgfzJQ840uT72zPDI-] found
Submit result: yP5Av4GHvmWgfzJQ840uT72zPDI- has been confirmed
Track | CTDB Status
1 | (6/7) Accurately ripped
2 | (6/7) Accurately ripped
3 | (7/7) Accurately ripped
4 | (7/7) Accurately ripped
5 | (7/7) Accurately ripped
6 | (7/7) Accurately ripped
7 | (6/7) Accurately ripped
8 | (7/7) Accurately ripped
9 | (7/7) Accurately ripped
10 | (7/7) Accurately ripped
11 | (6/7) Accurately ripped
12 | (6/7) Accurately ripped
13 | (6/7) Accurately ripped
14 | (6/7) Accurately ripped
15 | (7/7) Accurately ripped
16 | (7/7) Accurately ripped
17 | (7/7) Accurately ripped
18 | (7/7) Accurately ripped
19 | (6/7) Accurately ripped
20 | (7/7) Accurately ripped
21 | (7/7) Accurately ripped
==== Log checksum 07D5192A5F73DAF50A34B4D8C3930AEDB7AD028F0C4FD9861E66B03C1C729B7D ====

CD2

Exact Audio Copy V1.3 from 2. September 2016
EAC extraction logfile from 25. February 2017, 17:12
Nicholas McGegan / Atalanta, CD2
Used drive : HL-DT-STDVDRAM GSA-4081B Adapter: 1 ID: 1
Read mode : Secure
Utilize accurate stream : Yes
Defeat audio cache : Yes
Make use of C2 pointers : No
Read offset correction : 667
Overread into Lead-In and Lead-Out : No
Fill up missing offset samples with silence : Yes
Delete leading and trailing silent blocks : No
Null samples used in CRC calculations : Yes
Used interface : Native Win32 interface for Win NT & 2000
Used output format : User Defined Encoder
Selected bitrate : 768 kBit/s
Quality : High
Add ID3 tag : No
Command line compressor : C:\Program Files\Exact Audio Copy\FLAC\FLAC.EXE
Additional command line options : -6 -V -T "ARTIST=%artist%" -T "TITLE=%title%" -T "ALBUM=%albumtitle%" -T "DATE=%year%" -T "TRACKNUMBER=%tracknr%" -T "GENRE=%genre%" -T "COMMENT=%comment%" -T "BAND=%albuminterpret%" -T "ALBUMARTIST=%albuminterpret%" -T "COMPOSER=%composer%" %haslyrics%--tag-from-file=LYRICS="%lyricsfile%"%haslyrics% -T "DISCNUMBER=%cdnumber%" -T "TOTALDISCS=%totalcds%" -T "TOTALTRACKS=%numtracks%" %hascover%--picture="%coverfile%"%hascover% %source% -o %dest%
TOC of the extracted CD
Track | Start | Length | Start sector | End sector
---------------------------------------------------------
1 | 0:00.00 | 2:39.52 | 0 | 11976
2 | 2:39.52 | 1:13.60 | 11977 | 17511
3 | 3:53.37 | 8:41.28 | 17512 | 56614
4 | 12:34.65 | 1:04.30 | 56615 | 61444
5 | 13:39.20 | 5:21.65 | 61445 | 85584
6 | 19:01.10 | 1:00.70 | 85585 | 90154
7 | 20:02.05 | 3:10.20 | 90155 | 104424
8 | 23:12.25 | 0:42.52 | 104425 | 107626
9 | 23:55.02 | 4:55.00 | 107627 | 129751
10 | 28:50.02 | 0:24.65 | 129752 | 131616
11 | 29:14.67 | 5:48.70 | 131617 | 157786
12 | 35:03.62 | 0:46.25 | 157787 | 161261
13 | 35:50.12 | 5:05.55 | 161262 | 184191
14 | 40:55.67 | 0:18.50 | 184192 | 185591
15 | 41:14.42 | 6:53.05 | 185592 | 216571
Range status and errors
Selected range
Filename C:\Users\Miguel Angel\Downloads\Nicholas McGegan - Atalanta, CD2.wav
Peak level 100.0 %
Extraction speed 3.7 X
Range quality 99.9 %
Test CRC F2372468
Copy CRC F2372468
Copy OK
No errors occurred
AccurateRip summary
Track 1 accurately ripped (confidence 6) [91B58A21] (AR v2)
Track 2 accurately ripped (confidence 6) [897C57AA] (AR v2)
Track 3 accurately ripped (confidence 6) [A36F6B6E] (AR v2)
Track 4 accurately ripped (confidence 5) [51E5588F] (AR v2)
Track 5 accurately ripped (confidence 6) [7E2FEFAA] (AR v2)
Track 6 accurately ripped (confidence 5) [7605D435] (AR v2)
Track 7 accurately ripped (confidence 6) [67873A0E] (AR v2)
Track 8 accurately ripped (confidence 6) [9B46ABEF] (AR v2)
Track 9 accurately ripped (confidence 6) [6556E169] (AR v2)
Track 10 accurately ripped (confidence 6) [609EA859] (AR v2)
Track 11 accurately ripped (confidence 6) [30D166D0] (AR v2)
Track 12 accurately ripped (confidence 6) [73182250] (AR v2)
Track 13 accurately ripped (confidence 6) [82EDE07F] (AR v2)
Track 14 accurately ripped (confidence 6) [F42880A0] (AR v2)
Track 15 accurately ripped (confidence 6) [3369056F] (AR v2)
All tracks accurately ripped
End of status report
---- CUETools DB Plugin V2.1.6
[CTDB TOCID: bhv_LYUnN4RDnWOrDOy9cz3dbfM-] found
Submit result: bhv_LYUnN4RDnWOrDOy9cz3dbfM- has been confirmed
Track | CTDB Status
1 | (2/6) Accurately ripped, or (4/6) differs in 6 samples @00:11:19
2 | (6/6) Accurately ripped
3 | (6/6) Accurately ripped
4 | (6/6) Accurately ripped
5 | (6/6) Accurately ripped
6 | (6/6) Accurately ripped
7 | (6/6) Accurately ripped
8 | (6/6) Accurately ripped
9 | (6/6) Accurately ripped
10 | (6/6) Accurately ripped
11 | (6/6) Accurately ripped
12 | (6/6) Accurately ripped
13 | (6/6) Accurately ripped
14 | (6/6) Accurately ripped
15 | (6/6) Accurately ripped
If you are sure that your rip contains errors, you can use CUETools to repair it.
==== Log checksum 05B0D18C77AB5EC426B20F5C0BF6C1C79123B6868B78A0463FE67F6539A9D589 ====

CD3

Exact Audio Copy V1.3 from 2. September 2016
EAC extraction logfile from 26. February 2017, 1:00
Nicholas McGegan / Atalanta, CD3
Used drive : HL-DT-STDVDRAM GSA-4081B Adapter: 1 ID: 1
Read mode : Secure
Utilize accurate stream : Yes
Defeat audio cache : Yes
Make use of C2 pointers : No
Read offset correction : 667
Overread into Lead-In and Lead-Out : No
Fill up missing offset samples with silence : Yes
Delete leading and trailing silent blocks : No
Null samples used in CRC calculations : Yes
Used interface : Native Win32 interface for Win NT & 2000
Used output format : User Defined Encoder
Selected bitrate : 768 kBit/s
Quality : High
Add ID3 tag : No
Command line compressor : C:\Program Files\Exact Audio Copy\FLAC\FLAC.EXE
Additional command line options : -6 -V -T "ARTIST=%artist%" -T "TITLE=%title%" -T "ALBUM=%albumtitle%" -T "DATE=%year%" -T "TRACKNUMBER=%tracknr%" -T "GENRE=%genre%" -T "COMMENT=%comment%" -T "BAND=%albuminterpret%" -T "ALBUMARTIST=%albuminterpret%" -T "COMPOSER=%composer%" %haslyrics%--tag-from-file=LYRICS="%lyricsfile%"%haslyrics% -T "DISCNUMBER=%cdnumber%" -T "TOTALDISCS=%totalcds%" -T "TOTALTRACKS=%numtracks%" %hascover%--picture="%coverfile%"%hascover% %source% -o %dest%
TOC of the extracted CD
Track | Start | Length | Start sector | End sector
---------------------------------------------------------
1 | 0:00.00 | 1:09.15 | 0 | 5189
2 | 1:09.15 | 0:32.07 | 5190 | 7596
3 | 1:41.22 | 5:46.15 | 7597 | 33561
4 | 7:27.37 | 0:30.58 | 33562 | 35869
5 | 7:58.20 | 3:23.30 | 35870 | 51124
6 | 11:21.50 | 0:55.37 | 51125 | 55286
7 | 12:17.12 | 2:30.55 | 55287 | 66591
8 | 14:47.67 | 0:20.13 | 66592 | 68104
9 | 15:08.05 | 0:40.37 | 68105 | 71141
10 | 15:48.42 | 1:20.63 | 71142 | 77204
11 | 17:09.30 | 0:43.02 | 77205 | 80431
12 | 17:52.32 | 0:32.00 | 80432 | 82831
13 | 18:24.32 | 1:59.33 | 82832 | 91789
14 | 20:23.65 | 0:20.00 | 91790 | 93289
15 | 20:43.65 | 7:42.35 | 93290 | 127974
16 | 28:26.25 | 0:12.67 | 127975 | 128941
17 | 28:39.17 | 1:24.58 | 128942 | 135299
18 | 30:04.00 | 6:15.25 | 135300 | 163449
19 | 36:19.25 | 0:50.42 | 163450 | 167241
20 | 37:09.67 | 0:09.43 | 167242 | 167959
21 | 37:19.35 | 0:25.47 | 167960 | 169881
22 | 37:45.07 | 0:26.10 | 169882 | 171841
23 | 38:11.17 | 0:41.68 | 171842 | 174984
24 | 38:53.10 | 0:39.27 | 174985 | 177936
25 | 39:32.37 | 0:41.68 | 177937 | 181079
26 | 40:14.30 | 0:29.50 | 181080 | 183304
27 | 40:44.05 | 0:20.07 | 183305 | 184811
28 | 41:04.12 | 5:29.00 | 184812 | 209486
Range status and errors
Selected range
Filename C:\Users\Miguel Angel\Downloads\Nicholas McGegan - Atalanta, CD3.wav
Peak level 84.4 %
Extraction speed 4.1 X
Range quality 99.9 %
Test CRC 058A0A40
Copy CRC 058A0A40
Copy OK
No errors occurred
AccurateRip summary
Track 1 accurately ripped (confidence 2) [8AD9389F] (AR v2)
Track 2 accurately ripped (confidence 2) [EEBAD78F] (AR v2)
Track 3 accurately ripped (confidence 2) [63EB1878] (AR v2)
Track 4 accurately ripped (confidence 2) [E96A98FD] (AR v2)
Track 5 accurately ripped (confidence 2) [6223DFD2] (AR v2)
Track 6 accurately ripped (confidence 2) [72909AFF] (AR v2)
Track 7 accurately ripped (confidence 2) [42E1F6EF] (AR v2)
Track 8 accurately ripped (confidence 2) [26C321B3] (AR v2)
Track 9 accurately ripped (confidence 2) [5A12952C] (AR v2)
Track 10 accurately ripped (confidence 2) [3CE3672A] (AR v2)
Track 11 accurately ripped (confidence 2) [B4967820] (AR v2)
Track 12 accurately ripped (confidence 2) [0ECBDF86] (AR v2)
Track 13 accurately ripped (confidence 2) [1205E670] (AR v2)
Track 14 accurately ripped (confidence 2) [940DDE19] (AR v2)
Track 15 accurately ripped (confidence 2) [80D00188] (AR v2)
Track 16 accurately ripped (confidence 2) [58762696] (AR v2)
Track 17 accurately ripped (confidence 2) [D23C1599] (AR v2)
Track 18 accurately ripped (confidence 2) [2823AA2A] (AR v2)
Track 19 accurately ripped (confidence 2) [9498F5D8] (AR v2)
Track 20 accurately ripped (confidence 2) [AC2DFC64] (AR v2)
Track 21 accurately ripped (confidence 2) [1CBF4BF3] (AR v2)
Track 22 accurately ripped (confidence 2) [66D9A44B] (AR v2)
Track 23 accurately ripped (confidence 2) [5910A2B0] (AR v2)
Track 24 accurately ripped (confidence 2) [62C6D33E] (AR v2)
Track 25 accurately ripped (confidence 2) [C8CC0087] (AR v2)
Track 26 accurately ripped (confidence 2) [B8186B52] (AR v2)
Track 27 accurately ripped (confidence 2) [C23FA067] (AR v2)
Track 28 accurately ripped (confidence 2) [397EC15B] (AR v2)
All tracks accurately ripped
End of status report
---- CUETools DB Plugin V2.1.6
[CTDB TOCID: 4aa_nLqN.cGs.wN8V50ZNpwEkck-] found
Submit result: 4aa_nLqN.cGs.wN8V50ZNpwEkck- has been confirmed
Track | CTDB Status
1 | (6/6) Accurately ripped
2 | (6/6) Accurately ripped
3 | (6/6) Accurately ripped
4 | (6/6) Accurately ripped
5 | (6/6) Accurately ripped
6 | (6/6) Accurately ripped
7 | (6/6) Accurately ripped
8 | (6/6) Accurately ripped
9 | (6/6) Accurately ripped
10 | (6/6) Accurately ripped
11 | (6/6) Accurately ripped
12 | (5/6) Accurately ripped
13 | (6/6) Accurately ripped
14 | (6/6) Accurately ripped
15 | (6/6) Accurately ripped
16 | (6/6) Accurately ripped
17 | (6/6) Accurately ripped
18 | (6/6) Accurately ripped
19 | (6/6) Accurately ripped
20 | (6/6) Accurately ripped
21 | (6/6) Accurately ripped
22 | (6/6) Accurately ripped
23 | (6/6) Accurately ripped
24 | (6/6) Accurately ripped
25 | (6/6) Accurately ripped
26 | (6/6) Accurately ripped
27 | (6/6) Accurately ripped
28 | (6/6) Accurately ripped
==== Log checksum 132DD69A376BB1C92A9D12DF4B09B84EFED6B63F57E52A9D2DDC3395802DF28F ====

Содержание индексной карты (.CUE)

CD1

REM DISCID 120A9A15
REM COMMENT "ExactAudioCopy v1.3"
PERFORMER "Complesso Vocale di Szombathely, István Deáky / Capella Savaria, Pál Németh, Nicholas McGegan / Katalin Farkas, Éva Bártfai-Barta, Éva Lax, János Bándi, József Gregor, László Polgár"
TITLE "Handel - Atalanta - CD1"
REM COMPOSER "George Frederick Handel (1685–1759)"
FILE "McGegan - Handel - Atalanta - CD1.flac" WAVE
TRACK 01 AUDIO
TITLE "Overture [Allegro]"
PERFORMER "Capella Savaria, Pál Németh, Nicholas McGegan"
REM COMPOSER "George Frederick Handel (1685–1759)"
INDEX 01 00:00:00
TRACK 02 AUDIO
TITLE "Overture: Andante"
PERFORMER "Capella Savaria, Pál Németh, Nicholas McGegan"
REM COMPOSER "George Frederick Handel (1685–1759)"
INDEX 01 01:20:35
TRACK 03 AUDIO
TITLE "Overture: Andante"
PERFORMER "Capella Savaria, Pál Németh, Nicholas McGegan"
REM COMPOSER "George Frederick Handel (1685–1759)"
INDEX 01 03:29:17
TRACK 04 AUDIO
TITLE "Act 1. Arioso: Care selve, ombre beate (Meleagro)"
PERFORMER "Capella Savaria, Pál Németh, Nicholas McGegan & Éva Bártfai-Barta"
REM COMPOSER "George Frederick Handel (1685–1759)"
INDEX 00 05:34:30
INDEX 01 05:40:07
TRACK 05 AUDIO
TITLE "Recitativo: Sempre ti lagni, oh Tirsi? (Aminta, Meleagro)"
PERFORMER "Capella Savaria, Pál Németh, Nicholas McGegan & János Bándi, Éva Bártfai-Barta"
REM COMPOSER "George Frederick Handel (1685–1759)"
INDEX 01 07:34:60
TRACK 06 AUDIO
TITLE "Recitativo: Ecco Aminta! (Irene, Aminta, Meleagro)"
PERFORMER "Capella Savaria, Pál Németh, Nicholas McGegan & Éva Lax, János Bándi, Éva Bártfai-Barta"
REM COMPOSER "George Frederick Handel (1685–1759)"
INDEX 01 08:03:30
TRACK 07 AUDIO
TITLE "Aria: Lascia ch'io parta solo (Meleagro)"
PERFORMER "Capella Savaria, Pál Németh, Nicholas McGegan & Éva Bártfai-Barta"
REM COMPOSER "George Frederick Handel (1685–1759)"
INDEX 01 08:45:30
TRACK 08 AUDIO
TITLE "Recitativo: Chi'io rimanga con te? (Irene, Aminta)"
PERFORMER "Capella Savaria, Pál Németh, Nicholas McGegan & Éva Lax, János Bándi"
REM COMPOSER "George Frederick Handel (1685–1759)"
INDEX 01 14:49:25
TRACK 09 AUDIO
TITLE "Aria: S'è tuo piacer, ch'io mora (Aminta)"
PERFORMER "Capella Savaria, Pál Németh, Nicholas McGegan & János Bándi"
REM COMPOSER "George Frederick Handel (1685–1759)"
INDEX 01 15:22:10
TRACK 10 AUDIO
TITLE "Recitativo: Perchè sospesa, oh figlia (Nicandro, Irene)"
PERFORMER "Capella Savaria, Pál Németh, Nicholas McGegan & József Gregor, Éva Lax"
REM COMPOSER "George Frederick Handel (1685–1759)"
INDEX 01 21:46:62
TRACK 11 AUDIO
TITLE "Aria: Impara, ingrata (Nicandro)"
PERFORMER "Capella Savaria, Pál Németh, Nicholas McGegan & József Gregor"
REM COMPOSER "George Frederick Handel (1685–1759)"
INDEX 01 22:20:60
TRACK 12 AUDIO
TITLE "Recitativo: Ah! Che purtroppo adoro (Irene)"
PERFORMER "Capella Savaria, Pál Németh, Nicholas McGegan & Éva Lax"
REM COMPOSER "George Frederick Handel (1685–1759)"
INDEX 01 26:13:67
TRACK 13 AUDIO
TITLE "Aria: Come alla tortorella langue (Irene)"
PERFORMER "Capella Savaria, Pál Németh, Nicholas McGegan & Éva Lax"
REM COMPOSER "George Frederick Handel (1685–1759)"
INDEX 01 26:31:22
TRACK 14 AUDIO
TITLE "Arioso: Al varco, oh pastori! (Atalanta)"
PERFORMER "Capella Savaria, Pál Németh, Nicholas McGegan & Katalin Farkas"
REM COMPOSER "George Frederick Handel (1685–1759)"
INDEX 01 33:29:37
TRACK 15 AUDIO
TITLE "Recitativo: Oh Tirsi, e tu, che per fama (Atalanta)"
PERFORMER "Capella Savaria, Pál Németh, Nicholas McGegan & Katalin Farkas"
REM COMPOSER "George Frederick Handel (1685–1759)"
INDEX 01 34:53:17
TRACK 16 AUDIO
TITLE "Recitativo: Cerchi invano la morte (Irene, Aminta)"
PERFORMER "Capella Savaria, Pál Németh, Nicholas McGegan & Éva Lax, János Bándi"
REM COMPOSER "George Frederick Handel (1685–1759)"
INDEX 01 35:27:05
TRACK 17 AUDIO
TITLE "Sinfonia"
PERFORMER "Capella Savaria, Pál Németh, Nicholas McGegan"
REM COMPOSER "George Frederick Handel (1685–1759)"
INDEX 01 35:37:62
TRACK 18 AUDIO
TITLE "Recitativo: Trattenetolo, oh fidi (Atalanta, Meleagro)"
PERFORMER "Capella Savaria, Pál Németh, Nicholas McGegan & Katalin Farkas, Éva Bártfai-Barta"
REM COMPOSER "George Frederick Handel (1685–1759)"
INDEX 01 35:44:15
TRACK 19 AUDIO
TITLE "Aria: Riportai gloriosa palma (Atalanta)"
PERFORMER "Capella Savaria, Pál Németh, Nicholas McGegan & Katalin Farkas"
REM COMPOSER "George Frederick Handel (1685–1759)"
INDEX 01 35:57:50
TRACK 20 AUDIO
TITLE "Recitativo: Ah! che tu sei la fera (Meleagro)"
PERFORMER "Capella Savaria, Pál Németh, Nicholas McGegan & Éva Bártfai-Barta"
REM COMPOSER "George Frederick Handel (1685–1759)"
INDEX 01 39:32:32
TRACK 21 AUDIO
TITLE "Aria: Non sarа poco (Meleagro)"
PERFORMER "Capella Savaria, Pál Németh, Nicholas McGegan & Éva Bártfai-Barta"
REM COMPOSER "George Frederick Handel (1685–1759)"
INDEX 01 39:50:00

CD2

REM GENRE Opera
REM DATE 1985
REM DISCID B80B470F
REM COMMENT "ExactAudioCopy v1.3"
PERFORMER "Complesso Vocale di Szombathely, István Deáky / Capella Savaria, Pál Németh, Nicholas McGegan / Katalin Farkas, Éva Bártfai-Barta, Éva Lax, János Bándi, József Gregor, László Polgár"
TITLE "Handel - Atalanta - CD2"
REM COMPOSER "George Frederick Handel (1685–1759)"
FILE "McGegan - Handel - Atalanta - CD2.flac" WAVE
TRACK 01 AUDIO
TITLE "Act 2. Coro: Oggi rimbombano di feste"
PERFORMER "Complesso Vocale di Szombathely, István Deáky / Capella Savaria, Pál Németh, Nicholas McGegan"
REM COMPOSER "George Frederick Handel (1685–1759)"
INDEX 01 00:00:00
TRACK 02 AUDIO
TITLE "Recitativo: Sei pur sola una volta (Atalanta, Meleagro)"
PERFORMER "Capella Savaria, Pál Németh, Nicholas McGegan & Katalin Farkas, Éva Bártfai-Barta"
REM COMPOSER "George Frederick Handel (1685–1759)"
INDEX 01 02:39:52
TRACK 03 AUDIO
TITLE "Aria: Lassa! ch'io t'ho perduta (Atalanta)"
PERFORMER "Capella Savaria, Pál Németh, Nicholas McGegan & Katalin Farkas"
REM COMPOSER "George Frederick Handel (1685–1759)"
INDEX 01 03:53:37
TRACK 04 AUDIO
TITLE "Recitativo: Amarilli? - Oh Dei! qui Tirsi? (Meleagro, Atalanta)"
PERFORMER "Capella Savaria, Pál Németh, Nicholas McGegan & Éva Bártfai-Barta, Katalin Farkas"
REM COMPOSER "George Frederick Handel (1685–1759)"
INDEX 01 12:34:65
TRACK 05 AUDIO
TITLE "Duetto: Amarilli? - Oh Dei, che vuoi? (Meleagro, Atalanta)"
PERFORMER "Capella Savaria, Pál Németh, Nicholas McGegan & Éva Bártfai-Barta, Katalin Farkas"
REM COMPOSER "George Frederick Handel (1685–1759)"
INDEX 01 13:39:20
TRACK 06 AUDIO
TITLE "Recitativo: Ah! ch'io ancora l'intendo! (Meleagro, Irene)"
PERFORMER "Capella Savaria, Pál Németh, Nicholas McGegan & Éva Bártfai-Barta, Éva Lax"
REM COMPOSER "George Frederick Handel (1685–1759)"
INDEX 01 19:01:10
TRACK 07 AUDIO
TITLE "Aria: Sì, sì, mel raccordero (Meleagro)"
PERFORMER "Capella Savaria, Pál Németh, Nicholas McGegan & Éva Bártfai-Barta"
REM COMPOSER "George Frederick Handel (1685–1759)"
INDEX 01 20:02:05
TRACK 08 AUDIO
TITLE "Recitativo: Il mio caro pastore (Irene, Aminta)"
PERFORMER "Capella Savaria, Pál Németh, Nicholas McGegan & Éva Lax, János Bándi"
REM COMPOSER "George Frederick Handel (1685–1759)"
INDEX 01 23:12:25
TRACK 09 AUDIO
TITLE "Aria: Soffri in pace il tuo dolore (Irene)"
PERFORMER "Capella Savaria, Pál Németh, Nicholas McGegan & Éva Lax"
REM COMPOSER "George Frederick Handel (1685–1759)"
INDEX 01 23:55:02
TRACK 10 AUDIO
TITLE "Recitativo: E non moro d'affanno? (Aminta, Atalanta)"
PERFORMER "Capella Savaria, Pál Németh, Nicholas McGegan & János Bándi, Katalin Farkas"
REM COMPOSER "George Frederick Handel (1685–1759)"
INDEX 01 28:50:02
TRACK 11 AUDIO
TITLE "Aria: Dì ad Irene, tiranna (Aminta)"
PERFORMER "Capella Savaria, Pál Németh, Nicholas McGegan & János Bándi"
REM COMPOSER "George Frederick Handel (1685–1759)"
INDEX 01 29:14:67
TRACK 12 AUDIO
TITLE "Recitativo: Ma giunge il caro mio (Atalanta, Meleagro)"
PERFORMER "Capella Savaria, Pál Németh, Nicholas McGegan & Katalin Farkas, Éva Bártfai-Barta"
REM COMPOSER "George Frederick Handel (1685–1759)"
INDEX 01 35:03:62
TRACK 13 AUDIO
TITLE "Aria: M'allontano, sdegnose pupille (Meleagro)"
PERFORMER "Capella Savaria, Pál Németh, Nicholas McGegan & Éva Bártfai-Barta"
REM COMPOSER "George Frederick Handel (1685–1759)"
INDEX 01 35:50:12
TRACK 14 AUDIO
TITLE "Recitativo: Poveri affetti miei! (Atalanta)"
PERFORMER "Capella Savaria, Pál Németh, Nicholas McGegan & Katalin Farkas"
REM COMPOSER "George Frederick Handel (1685–1759)"
INDEX 01 40:55:67
TRACK 15 AUDIO
TITLE "Aria: Se nasce un rivoletto (Atalanta)"
PERFORMER "Capella Savaria, Pál Németh, Nicholas McGegan & Katalin Farkas"
REM COMPOSER "George Frederick Handel (1685–1759)"
INDEX 01 41:14:42

CD3

REM GENRE Opera
REM DATE 1985
REM DISCID 640AE91C
REM COMMENT "ExactAudioCopy v1.3"
PERFORMER "Complesso Vocale di Szombathely, István Deáky / Capella Savaria, Pál Németh, Nicholas McGegan / Katalin Farkas, Éva Bártfai-Barta, Éva Lax, János Bándi, József Gregor, László Polgár"
TITLE "Handel - Atalanta - CD3"
REM COMPOSER "George Frederick Handel (1685–1759)"
FILE "McGegan - Handel - Atalanta - CD3.flac" WAVE
TRACK 01 AUDIO
TITLE "Act 3. Sinfonia"
PERFORMER "Capella Savaria, Pál Németh, Nicholas McGegan"
REM COMPOSER "George Frederick Handel (1685–1759)"
INDEX 01 00:00:00
TRACK 02 AUDIO
TITLE "Recitativo: E dalla man di Tirsi (Atalanta, Irene)"
PERFORMER "Capella Savaria, Pál Németh, Nicholas McGegan & Katalin Farkas, Éva Lax"
REM COMPOSER "George Frederick Handel (1685–1759)"
INDEX 01 01:09:15
TRACK 03 AUDIO
TITLE "Aria: Bench'io non sappia ancor (Atalanta)"
PERFORMER "Capella Savaria, Pál Németh, Nicholas McGegan & Katalin Farkas"
REM COMPOSER "George Frederick Handel (1685–1759)"
INDEX 01 01:41:22
TRACK 04 AUDIO
TITLE "Recitativo: Sono Irene? oppur sogno? (Irene, Aminta)"
PERFORMER "Capella Savaria, Pál Németh, Nicholas McGegan & Éva Lax, János Bándi"
REM COMPOSER "George Frederick Handel (1685–1759)"
INDEX 01 07:27:37
TRACK 05 AUDIO
TITLE "Aria: Diedi il core ad altra Ninfa (Aminta)"
PERFORMER "Capella Savaria, Pál Németh, Nicholas McGegan & Katalin Farkas"
REM COMPOSER "George Frederick Handel (1685–1759)"
INDEX 01 07:58:20
TRACK 06 AUDIO
TITLE "Recitativo: Ohimè! che pene! (Irene, Meleagro, Aminta)"
PERFORMER "Capella Savaria, Pál Németh, Nicholas McGegan & Éva Lax, Éva Bártfai-Barta, János Bándi"
REM COMPOSER "George Frederick Handel (1685–1759)"
INDEX 01 11:21:50
TRACK 07 AUDIO
TITLE "Aria: Ben'io sento l'ingrata (Irene)"
PERFORMER "Capella Savaria, Pál Németh, Nicholas McGegan & Éva Lax"
REM COMPOSER "George Frederick Handel (1685–1759)"
INDEX 01 12:17:12
TRACK 08 AUDIO
TITLE "Recitativo: Oh! del crudo mio (Meleagro)"
PERFORMER "Capella Savaria, Pál Németh, Nicholas McGegan & Éva Bártfai-Barta"
REM COMPOSER "George Frederick Handel (1685–1759)"
INDEX 01 14:47:67
TRACK 09 AUDIO
TITLE "Recitativo: Quanto più ti contemplo (Atalanta, Meleagro)"
PERFORMER "Capella Savaria, Pál Németh, Nicholas McGegan & Katalin Farkas, Éva Bártfai-Barta"
REM COMPOSER "George Frederick Handel (1685–1759)"
INDEX 01 15:08:05
TRACK 10 AUDIO
TITLE "Arioso: Custodite, o dolci sogni (Atalanta)"
PERFORMER "Capella Savaria, Pál Németh, Nicholas McGegan & Katalin Farkas"
REM COMPOSER "George Frederick Handel (1685–1759)"
INDEX 01 15:48:42
TRACK 11 AUDIO
TITLE "Recitativo: Io vo' morir...giа corro (Atalanta, Meleagro)"
PERFORMER "Capella Savaria, Pál Németh, Nicholas McGegan & Katalin Farkas, Éva Bártfai-Barta"
REM COMPOSER "George Frederick Handel (1685–1759)"
INDEX 01 17:09:30
TRACK 12 AUDIO
TITLE "Recitativo: Re Meleagro (Nicandro)"
PERFORMER "Capella Savaria, Pál Németh, Nicholas McGegan & József Gregor"
REM COMPOSER "George Frederick Handel (1685–1759)"
INDEX 01 17:52:32
TRACK 13 AUDIO
TITLE "Aria: Or trionfar ti fanno (Nicandro)"
PERFORMER "Capella Savaria, Pál Németh, Nicholas McGegan & József Gregor"
REM COMPOSER "George Frederick Handel (1685–1759)"
INDEX 01 18:24:32
TRACK 14 AUDIO
TITLE "Recitativo: Oh forza del destin! (Atalanta, Meleagro, Irene, Aminta)"
PERFORMER "Capella Savaria, Pál Németh, Nicholas McGegan & Katalin Farkas, Éva Bártfai-Barta, Éva Lax, János Bándi"
REM COMPOSER "George Frederick Handel (1685–1759)"
INDEX 01 20:23:65
TRACK 15 AUDIO
TITLE "Duetto: Caro/Cara (Atalanta, Meleagro)"
PERFORMER "Capella Savaria, Pál Németh, Nicholas McGegan & Katalin Farkas, Éva Bártfai-Barta"
REM COMPOSER "George Frederick Handel (1685–1759)"
INDEX 01 20:43:65
TRACK 16 AUDIO
TITLE "Sinfonia"
PERFORMER "Capella Savaria, Pál Németh, Nicholas McGegan"
REM COMPOSER "George Frederick Handel (1685–1759)"
INDEX 00 28:25:05
INDEX 01 28:26:25
TRACK 17 AUDIO
TITLE "Accompagnato: Del supremo Tonante (Mercurio)"
PERFORMER "Capella Savaria, Pál Németh, Nicholas McGegan & László Polgár"
REM COMPOSER "George Frederick Handel (1685–1759)"
INDEX 01 28:39:17
TRACK 18 AUDIO
TITLE "Aria: Sol prova contenti (Mercurio)"
PERFORMER "Capella Savaria, Pál Németh, Nicholas McGegan & László Polgár"
REM COMPOSER "George Frederick Handel (1685–1759)"
INDEX 01 30:04:00
TRACK 19 AUDIO
TITLE "Coro: Dalla stirpe degli Eroi"
PERFORMER "Complesso Vocale di Szombathely, István Deáky / Capella Savaria, Pál Németh, Nicholas McGegan"
REM COMPOSER "George Frederick Handel (1685–1759)"
INDEX 01 36:19:25
TRACK 20 AUDIO
TITLE "Recitativo: Con voce giuliva (Mercurio)"
PERFORMER "Capella Savaria, Pál Németh, Nicholas McGegan & László Polgár"
REM COMPOSER "George Frederick Handel (1685–1759)"
INDEX 01 37:09:67
TRACK 21 AUDIO
TITLE "Coro: Gridiam tutti"
PERFORMER "Complesso Vocale di Szombathely, István Deáky / Capella Savaria, Pál Németh, Nicholas McGegan"
REM COMPOSER "George Frederick Handel (1685–1759)"
INDEX 01 37:19:35
TRACK 22 AUDIO
TITLE "Sinfonia instrumentale"
PERFORMER "Capella Savaria, Pál Németh, Nicholas McGegan"
REM COMPOSER "George Frederick Handel (1685–1759)"
INDEX 01 37:45:07
TRACK 23 AUDIO
TITLE "Coro: Viva la face, viva l'amor!"
PERFORMER "Complesso Vocale di Szombathely, István Deáky / Capella Savaria, Pál Németh, Nicholas McGegan"
REM COMPOSER "George Frederick Handel (1685–1759)"
INDEX 01 38:11:17
TRACK 24 AUDIO
TITLE "Gavotta"
PERFORMER "Capella Savaria, Pál Németh, Nicholas McGegan"
REM COMPOSER "George Frederick Handel (1685–1759)"
INDEX 01 38:53:10
TRACK 25 AUDIO
TITLE "Coro: Viva la face, viva l'amor!"
PERFORMER "Complesso Vocale di Szombathely, István Deáky / Capella Savaria, Pál Németh, Nicholas McGegan"
REM COMPOSER "George Frederick Handel (1685–1759)"
INDEX 01 39:32:37
TRACK 26 AUDIO
TITLE "Coro: Con voce giuliva"
PERFORMER "Complesso Vocale di Szombathely, István Deáky / Capella Savaria, Pál Németh, Nicholas McGegan"
REM COMPOSER "George Frederick Handel (1685–1759)"
INDEX 01 40:14:30
TRACK 27 AUDIO
TITLE "Appendix Recitativo: Oh forza del destin! (Atalanta, Meleagro, Irene, Aminta)"
PERFORMER "Capella Savaria, Pál Németh, Nicholas McGegan & Katalin Farkas, Éva Bártfai-Barta, Éva Lax, János Bándi"
REM COMPOSER "George Frederick Handel (1685–1759)"
INDEX 00 40:34:25
INDEX 01 40:44:05
TRACK 28 AUDIO
TITLE "Appendix Aria: Tu solcasti il mare infido (Meleagro)"
PERFORMER "Capella Savaria, Pál Németh, Nicholas McGegan & Éva Bártfai-Barta"
REM COMPOSER "George Frederick Handel (1685–1759)"
INDEX 01 41:04:12
[cybertorrent.ru].t41465.torrent 
Торрент: Зарегистрирован [ 2018-03-19 15:15 ] · 753AF8EC220208AF1DE6F26B9F16414B02BCF546

Скачать .torrent

Скачать

16 KB

Статус: проверено
Скачан: 0 раз
Размер: 668 MB
Профиль [ЛС]
Показать сообщения:    

Текущее время: 24-Апр 18:22

Часовой пояс: UTC ± 0



Вы не можете начинать темы
Вы не можете отвечать на сообщения
Вы не можете редактировать свои сообщения
Вы не можете удалять свои сообщения
Вы не можете голосовать в опросах
Вы не можете прикреплять файлы к сообщениям
Вы можете скачивать файлы