Статистика раздачи
Размер:  434 MB   |    Зарегистрирован:  1 месяц 5 дней   |    Скачан:  0 раз

Полного источника не было: Никогда

Личеров:  1  [  0 KB/s  ]  
 
   
 
 

вояка ®

Пол:
Не указан
Стаж:
2 месяца 8 дней
Сообщений:
269

Rhythms del Mundo - Classics
Жанр: Latin / Fusion / Pop
Год выпуска диска: 2009
Производитель диска: Universal
Аудио кодек: FLAC
Тип рипа: tracks+.cue
Битрейт аудио: lossless
Продолжительность: 01:09:25
Трэклист:
1. RDM feat. The Killers - Hotel California
2. RDM feat. Amy Winehouse - Cupid
3. RDM feat. Jack Johnson - Imagine
4. RDM feat. Keane - Under Pressure
5. RDM feat. Editors - Walk on the Wild Side
6. RDM feat. Kaiser Chiefs - I Heard it Through the Grapevine
7. RDM feat. Cat Power - Satisfaction
8. RDM feat. The Rolling Stones - Under the Boardwalk
9. RDM feat. The Zutons - Runaway
10. RDM feat. Kt Tunstall - Because the Night
11. RDM feat. Augusto Enriquez - Bohemian Rhapsody
12. RDM feat. Onerepublic - For What It's Worth
13. RDM feat. Aquila Rose & Dana Valdes - Big Yellow Taxi
14. RDM feat. Fall Out Boy - Beat it
15. RDM - Purple Haze
16. RDM feat. Shanade - Smells Like Teen Spirit
17. RDM feat. The Kooks - Are you Ready For Love
18. RDM feat. Eros Ramazzotti - Mi Cherie Amour
19. RDM feat. Rodriko Y Gabriela - Stairway to Heaven

отчёт ЕАС

Exact Audio Copy V0.99 prebeta 4 from 23. January 2008
EAC extraction logfile from 14. July 2009, 19:09
Various / Rhythms Del Mundo - Classics
Used drive : TSSTcorpSH-D162C Adapter: 6 ID: 0
Read mode : Secure
Utilize accurate stream : Yes
Defeat audio cache : Yes
Make use of C2 pointers : No
Read offset correction : 6
Overread into Lead-In and Lead-Out : No
Fill up missing offset samples with silence : Yes
Delete leading and trailing silent blocks : No
Null samples used in CRC calculations : Yes
Used interface : Native Win32 interface for Win NT & 2000
Gap handling : Appended to previous track
Used output format : User Defined Encoder
Selected bitrate : 128 kBit/s
Quality : High
Add ID3 tag : No
Command line compressor : C:\Program Files\FLAC\flac.exe
Additional command line options : -V -8 -T "artist=%a" -T "title=%t" -T "album=%g" -T "date=%y" -T "tracknumber=%n" -T "genre=%m" %s
TOC of the extracted CD
Track | Start | Length | Start sector | End sector
---------------------------------------------------------
1 | 0:00.00 | 6:05.61 | 0 | 27435
2 | 6:05.61 | 3:40.01 | 27436 | 43936
3 | 9:45.62 | 4:13.21 | 43937 | 62932
4 | 13:59.08 | 4:15.23 | 62933 | 82080
5 | 18:14.31 | 4:13.07 | 82081 | 101062
6 | 22:27.38 | 3:58.27 | 101063 | 118939
7 | 26:25.65 | 3:01.45 | 118940 | 132559
8 | 29:27.35 | 2:46.49 | 132560 | 145058
9 | 32:14.09 | 3:10.00 | 145059 | 159308
10 | 35:24.09 | 3:23.69 | 159309 | 174602
11 | 38:48.03 | 4:14.71 | 174603 | 193723
12 | 43:02.74 | 3:13.48 | 193724 | 208246
13 | 46:16.47 | 2:26.46 | 208247 | 219242
14 | 48:43.18 | 3:23.05 | 219243 | 234472
15 | 52:06.23 | 3:14.23 | 234473 | 249045
16 | 55:20.46 | 2:48.65 | 249046 | 261710
17 | 58:09.36 | 3:05.47 | 261711 | 275632
18 | 61:15.08 | 3:09.16 | 275633 | 289823
19 | 64:24.24 | 5:00.73 | 289824 | 312396
Track 1
Filename E:\music\Various\Rhythms Del Mundo - Classics\01 - Various - The Killers - Hotel California.wav
Pre-gap length 0:00:02.00
Peak level 99.8 %
Track quality 100.0 %
Test CRC 46A0AE3C
Copy CRC 46A0AE3C
Copy OK
Track 2
Filename E:\music\Various\Rhythms Del Mundo - Classics\02 - Various - Amy Winehouse - Cupid.wav
Pre-gap length 0:00:00.12
Peak level 99.8 %
Track quality 100.0 %
Test CRC D75979E1
Copy CRC D75979E1
Copy OK
Track 3
Filename E:\music\Various\Rhythms Del Mundo - Classics\03 - Various - Jack Johnson - Imagine.wav
Pre-gap length 0:00:02.07
Peak level 99.9 %
Track quality 100.0 %
Test CRC 73B137B5
Copy CRC 73B137B5
Copy OK
Track 4
Filename E:\music\Various\Rhythms Del Mundo - Classics\04 - Various - Keane - Under Pressure.wav
Pre-gap length 0:00:00.31
Peak level 99.9 %
Track quality 100.0 %
Test CRC FFA595EE
Copy CRC FFA595EE
Copy OK
Track 5
Filename E:\music\Various\Rhythms Del Mundo - Classics\05 - Various - Editors - Walk On The Wild Side.wav
Pre-gap length 0:00:00.23
Peak level 99.7 %
Track quality 100.0 %
Test CRC 09907EA5
Copy CRC 09907EA5
Copy OK
Track 6
Filename E:\music\Various\Rhythms Del Mundo - Classics\06 - Various - Kaiser Chiefs - I Heard It Through The Grapevine.wav
Pre-gap length 0:00:00.70
Peak level 100.0 %
Track quality 100.0 %
Test CRC 06050AF8
Copy CRC 06050AF8
Copy OK
Track 7
Filename E:\music\Various\Rhythms Del Mundo - Classics\07 - Various - Cat Power - Satisfaction.wav
Pre-gap length 0:00:00.62
Peak level 99.7 %
Track quality 100.0 %
Test CRC D835E3E9
Copy CRC D835E3E9
Copy OK
Track 8
Filename E:\music\Various\Rhythms Del Mundo - Classics\08 - Various - The Rolling Stones - Under The Boardwalk.wav
Pre-gap length 0:00:01.49
Peak level 99.9 %
Track quality 100.0 %
Test CRC B4928B87
Copy CRC B4928B87
Copy OK
Track 9
Filename E:\music\Various\Rhythms Del Mundo - Classics\09 - Various - The Zutons - Runaway.wav
Pre-gap length 0:00:02.01
Peak level 99.8 %
Track quality 100.0 %
Test CRC E944F481
Copy CRC E944F481
Copy OK
Track 10
Filename E:\music\Various\Rhythms Del Mundo - Classics\10 - Various - KT Tunstall - Because The Night.wav
Pre-gap length 0:00:01.62
Peak level 99.9 %
Track quality 100.0 %
Test CRC 39C9E9C7
Copy CRC 39C9E9C7
Copy OK
Track 11
Filename E:\music\Various\Rhythms Del Mundo - Classics\11 - Various - Augusto Enriquez - Bohemian Rhapsody.wav
Pre-gap length 0:00:00.57
Peak level 99.9 %
Track quality 100.0 %
Test CRC DF19396A
Copy CRC DF19396A
Copy OK
Track 12
Filename E:\music\Various\Rhythms Del Mundo - Classics\12 - Various - OneRepublic - For What It's Worth.wav
Pre-gap length 0:00:02.21
Peak level 99.8 %
Track quality 100.0 %
Test CRC DCBAAF3D
Copy CRC DCBAAF3D
Copy OK
Track 13
Filename E:\music\Various\Rhythms Del Mundo - Classics\13 - Various - Aquila Rose & Idana Valdes - Big Yellow Taxi.wav
Pre-gap length 0:00:01.08
Peak level 99.8 %
Track quality 100.0 %
Test CRC E4E09593
Copy CRC E4E09593
Copy OK
Track 14
Filename E:\music\Various\Rhythms Del Mundo - Classics\14 - Various - Fall Out Boy - Beat It.wav
Pre-gap length 0:00:01.59
Peak level 99.9 %
Track quality 100.0 %
Test CRC 3ED0A08B
Copy CRC 3ED0A08B
Copy OK
Track 15
Filename E:\music\Various\Rhythms Del Mundo - Classics\15 - Various - Rhythms Del Mundo - Purple Haze.wav
Pre-gap length 0:00:00.52
Peak level 99.9 %
Track quality 100.0 %
Test CRC E022346B
Copy CRC E022346B
Copy OK
Track 16
Filename E:\music\Various\Rhythms Del Mundo - Classics\16 - Various - Shanade - Smells Like Teen Spirit.wav
Pre-gap length 0:00:01.33
Peak level 99.9 %
Track quality 100.0 %
Test CRC 700F94CB
Copy CRC 700F94CB
Copy OK
Track 17
Filename E:\music\Various\Rhythms Del Mundo - Classics\17 - Various - The Kooks - Are You Ready For Love.wav
Pre-gap length 0:00:00.44
Peak level 99.8 %
Track quality 99.9 %
Test CRC 0FC91C66
Copy CRC 0FC91C66
Copy OK
Track 18
Filename E:\music\Various\Rhythms Del Mundo - Classics\18 - Various - Eros Ramazzotti - Mi Cherie Amour.wav
Pre-gap length 0:00:01.68
Peak level 99.8 %
Track quality 100.0 %
Test CRC 1A877941
Copy CRC 1A877941
Copy OK
Track 19
Filename E:\music\Various\Rhythms Del Mundo - Classics\19 - Various - Rodrigo Y Gabriela - Stairway To Heaven.wav
Pre-gap length 0:00:01.27
Peak level 99.8 %
Track quality 100.0 %
Test CRC 2D33F3C1
Copy CRC 2D33F3C1
Copy OK
No errors occurred
End of status report
[cybertorrent.ru].t41467.torrent 
Торрент: Зарегистрирован [ 2018-03-19 15:15 ] · A1B1E8CE1B6B85191DC17C5EDB83274E034EF532

Скачать .torrent

Скачать

36 KB

Статус: проверено
Скачан: 0 раз
Размер: 434 MB
Профиль [ЛС]
Показать сообщения:    

Текущее время: 24-Апр 18:21

Часовой пояс: UTC ± 0



Вы не можете начинать темы
Вы не можете отвечать на сообщения
Вы не можете редактировать свои сообщения
Вы не можете удалять свои сообщения
Вы не можете голосовать в опросах
Вы не можете прикреплять файлы к сообщениям
Вы можете скачивать файлы