Статистика раздачи
Размер:  260 MB   |    Зарегистрирован:  1 месяц 3 дня   |    Скачан:  0 раз

Полного источника не было: Никогда

 
   
 
 

Keeper ®

Пол:
Не указан
Стаж:
2 месяца 7 дней
Сообщений:
655

Art Blakey / 1958 - Des Femmes Disparaissent / Les Tricheurs
Жанр: Hard Bop
Страна-производитель диска: West Germany
Год издания диска: 1988
Издатель (лейбл): Fontana / PolyGram Jazz France
Номер по каталогу: 834 752-2
Страна: USA
Аудио кодек: FLAC (*.flac)
Тип рипа: image+.cue
Битрейт аудио: lossless
Продолжительность: 48:15
Источник (релизер): nkomissar
Наличие сканов в содержимом раздачи: нет
Треклист:
1. Générique
2. Pierre Et Beatrice
3. Nasol
4. Tom
5. Poursuite Dans La Ruelle
6. Ne Chuchote Pas
7. Mambo Dans La Voiture
8. Merlin
9. Juste Pour Eux Seuls
10. Blues pour Doudou
11. Blues pour Marcel
12. Blues Pour Vava
13. Pasquier
14. Quaglio
15. La divorcee De Leo Fall
16. Suspense, Tom Et Nasol
17. Des Femmes Disparaissent
18. Final Pour Pierre Et Beatrice
19. Les Tricheurs - Getz/Eldridge/
20. Clo's Blues - Coleman Hawkins
21. Phil's Tune - Roy Eldridge
22. Mic's Jump - Dizzy Gillespie
23. Crazy Hamp - Lionel Hampton

Лог создания рипа

Exact Audio Copy V0.99 prebeta 4 from 23. January 2008
EAC extraction logfile from 30. January 2011, 11:55
Art Blakey / Des Femmes Disparaissent/Les Tricheurs
Used drive : TSSTcorpDVD+-RW TS-L632D Adapter: 1 ID: 0
Read mode : Secure
Utilize accurate stream : Yes
Defeat audio cache : Yes
Make use of C2 pointers : No
Read offset correction : 6
Overread into Lead-In and Lead-Out : No
Fill up missing offset samples with silence : Yes
Delete leading and trailing silent blocks : No
Null samples used in CRC calculations : Yes
Used interface : Native Win32 interface for Win NT & 2000
Used output format : User Defined Encoder
Selected bitrate : 768 kBit/s
Quality : High
Add ID3 tag : No
Command line compressor : C:\Program Files\Exact Audio Copy\FLAC\FLAC.EXE
Additional command line options : -8 -V %s
TOC of the extracted CD
Track | Start | Length | Start sector | End sector
---------------------------------------------------------
1 | 0:00.33 | 2:47.50 | 33 | 12607
2 | 2:48.08 | 1:06.25 | 12608 | 17582
3 | 3:54.33 | 0:43.00 | 17583 | 20807
4 | 4:37.33 | 1:16.00 | 20808 | 26507
5 | 5:53.33 | 0:23.00 | 26508 | 28232
6 | 6:16.33 | 1:27.00 | 28233 | 34757
7 | 7:43.33 | 1:20.00 | 34758 | 40757
8 | 9:03.33 | 0:47.00 | 40758 | 44282
9 | 9:50.33 | 2:28.00 | 44283 | 55382
10 | 12:18.33 | 3:17.00 | 55383 | 70157
11 | 15:35.33 | 4:21.00 | 70158 | 89732
12 | 19:56.33 | 3:32.00 | 89733 | 105632
13 | 23:28.33 | 1:01.00 | 105633 | 110207
14 | 24:29.33 | 0:48.00 | 110208 | 113807
15 | 25:17.33 | 2:13.00 | 113808 | 123782
16 | 27:30.33 | 0:41.00 | 123783 | 126857
17 | 28:11.33 | 1:03.50 | 126858 | 131632
18 | 29:15.08 | 1:03.25 | 131633 | 136382
19 | 30:18.33 | 3:14.00 | 136383 | 150932
20 | 33:32.33 | 3:24.00 | 150933 | 166232
21 | 36:56.33 | 4:21.00 | 166233 | 185807
22 | 41:17.33 | 2:18.00 | 185808 | 196157
23 | 43:35.33 | 4:45.25 | 196158 | 217557
Range status and errors
Selected range
Filename C:\Music\Art Blakey - Des Femmes Disparaissent Les Tricheurs\Art Blakey - Des Femmes Disparaissent Les Tricheurs.wav
Peak level 98.2 %
Range quality 100.0 %
Test CRC 11C49B38
Copy CRC 11C49B38
Copy OK
No errors occurred
AccurateRip summary
Track 1 not present in database
Track 2 not present in database
Track 3 not present in database
Track 4 not present in database
Track 5 not present in database
Track 6 not present in database
Track 7 not present in database
Track 8 not present in database
Track 9 not present in database
Track 10 not present in database
Track 11 not present in database
Track 12 not present in database
Track 13 not present in database
Track 14 not present in database
Track 15 not present in database
Track 16 not present in database
Track 17 not present in database
Track 18 not present in database
Track 19 not present in database
Track 20 not present in database
Track 21 not present in database
Track 22 not present in database
Track 23 not present in database
None of the tracks are present in the AccurateRip database
End of status report

Содержание индексной карты (.CUE)

REM GENRE Jazz
REM DATE 1958
REM DISCID 420B5417
REM COMMENT "ExactAudioCopy v0.99pb4"
PERFORMER "Art Blakey"
TITLE "Des Femmes Disparaissent/Les Tricheurs"
FILE "Art Blakey - Des Femmes Disparaissent Les Tricheurs.flac" WAVE
TRACK 01 AUDIO
TITLE "Générique"
PERFORMER "Art Blakey"
INDEX 00 00:00:00
INDEX 01 00:00:33
TRACK 02 AUDIO
TITLE "Pierre et Béatrice" (Cry a Blue Tear)"
PERFORMER "Art Blakey"
INDEX 00 02:45:08
INDEX 01 02:48:08
TRACK 03 AUDIO
TITLE "Nasol"
PERFORMER "Art Blakey"
INDEX 00 03:51:33
INDEX 01 03:54:33
TRACK 04 AUDIO
TITLE "Tom"
PERFORMER "Art Blakey"
INDEX 00 04:35:33
INDEX 01 04:37:33
TRACK 05 AUDIO
TITLE "Poursuite Dans La Ruelle"
PERFORMER "Art Blakey"
INDEX 00 05:51:20
INDEX 01 05:53:33
TRACK 06 AUDIO
TITLE "Ne Chuchote Pas"
PERFORMER "Art Blakey"
INDEX 00 06:13:20
INDEX 01 06:16:33
TRACK 07 AUDIO
TITLE "Mambo Dans La Voiture"
PERFORMER "Art Blakey"
INDEX 00 07:41:70
INDEX 01 07:43:33
TRACK 08 AUDIO
TITLE "Merlin"
PERFORMER "Art Blakey"
INDEX 00 09:00:45
INDEX 01 09:03:33
TRACK 09 AUDIO
TITLE "Juste Pour Eux Seuls"
PERFORMER "Art Blakey"
INDEX 00 09:49:20
INDEX 01 09:50:33
TRACK 10 AUDIO
TITLE "Blues Pour Doudou"
PERFORMER "Art Blakey"
INDEX 00 12:15:70
INDEX 01 12:18:33
TRACK 11 AUDIO
TITLE "Blues Pour Marcel"
PERFORMER "Art Blakey"
INDEX 00 15:31:58
INDEX 01 15:35:33
TRACK 12 AUDIO
TITLE "Blues Pour Vava"
PERFORMER "Art Blakey"
INDEX 00 19:54:33
INDEX 01 19:56:33
TRACK 13 AUDIO
TITLE "Pasquier"
PERFORMER "Art Blakey"
INDEX 00 23:25:58
INDEX 01 23:28:33
TRACK 14 AUDIO
TITLE "Quaglio"
PERFORMER "Art Blakey"
INDEX 00 24:28:45
INDEX 01 24:29:33
TRACK 15 AUDIO
TITLE "La Divorcee de Leo Fall"
PERFORMER "Art Blakey"
INDEX 00 25:15:20
INDEX 01 25:17:33
TRACK 16 AUDIO
TITLE "Suspense, Tom et Nasol"
PERFORMER "Art Blakey"
INDEX 00 27:28:08
INDEX 01 27:30:33
TRACK 17 AUDIO
TITLE "Des Femmes Disparaissent"
PERFORMER "Art Blakey"
INDEX 00 28:09:45
INDEX 01 28:11:33
TRACK 18 AUDIO
TITLE "Final Pour Pierre et Beatrice"
PERFORMER "Art Blakey"
INDEX 00 29:13:45
INDEX 01 29:15:08
TRACK 19 AUDIO
TITLE "Les Tricheurs"
PERFORMER "Art Blakey"
INDEX 00 30:13:20
INDEX 01 30:18:33
TRACK 20 AUDIO
TITLE "Clo's Blues"
PERFORMER "Art Blakey"
INDEX 00 33:29:20
INDEX 01 33:32:33
TRACK 21 AUDIO
TITLE "Phil's Tune"
PERFORMER "Art Blakey"
INDEX 00 36:52:58
INDEX 01 36:56:33
TRACK 22 AUDIO
TITLE "Mic's Jump"
PERFORMER "Art Blakey"
INDEX 00 41:15:20
INDEX 01 41:17:33
TRACK 23 AUDIO
TITLE "Crazy Hamp"
PERFORMER "Art Blakey"
INDEX 00 43:32:58
INDEX 01 43:35:33

Состав

Des Femmes Disparaissent:
Benny Golson - tenor sax;
Lee Morgan - trumpet;
Bobby Timmons - piano;
Jimmy Merritt - bass;
Art Blakey - drums;
Les Tricheurs:
Oscar Peterson - piano;
Herb Ellis - guitar;
Ray Brown - bass;
Gus Jonson - drums;
19 Stan Gets - tenor sax, Roy Eldridge - trumpet;
20 Coleman Hawkins - tenor sax;
21 Roy Eldridge - trumpet;
22 Dizzy Gillespie - trumpet;
23 Lionel Hampton - drums, Milton "Mezz" Mezzrow - clarinet, Andre Persiany - piano, Buddy Banks - drums;
[cybertorrent.ru].t41476.torrent 
Торрент: Зарегистрирован [ 2018-03-19 15:15 ] · F601376C414807853E34E445EF5428D16DE7011D

Скачать .torrent

Скачать

21 KB

Статус: проверено
Скачан: 0 раз
Размер: 260 MB
Профиль [ЛС]
Показать сообщения:    

Текущее время: 22-Апр 16:01

Часовой пояс: UTC ± 0



Вы не можете начинать темы
Вы не можете отвечать на сообщения
Вы не можете редактировать свои сообщения
Вы не можете удалять свои сообщения
Вы не можете голосовать в опросах
Вы не можете прикреплять файлы к сообщениям
Вы можете скачивать файлы