Статистика раздачи
Размер:  1,42 GB   |    Зарегистрирован:  1 месяц 5 дней   |    Скачан:  0 раз

Полного источника не было: Никогда

 
   
 
 

chik ®

Пол:
Не указан
Стаж:
2 месяца 6 дней
Сообщений:
148


Billy Joel

• New Orleans Jazz and Heritage Festival •


Жанр: Rock
Продолжительность: 00:22:53
Год выпуска: April 27, 2013

Треклист

01. Intro
02. Miami 2017 (Seen The Lights Go Out On Broadway)
03. Big Man On Mulberry Street
04. Root Beer Rag
05. Scenes From An Italian Restaurant
Качество: HDTVRip 1080i
Контейнер: MKV
Видео кодек: H.264
Аудио кодек: AC3
Видео: MPEG4 Video (H264) 1920x1080 29.97fps 8331 Kbps
Аудио: Dolby AC3 48000Hz 6ch 384 Kbps

Отчёт MediaInfo / BDInfo

General
Unique ID : 248044620510615457372969926913171458682 (0xBA9BA7FDF0762FAF81E24B6C1D9D0A7A)
Complete name : E:\Billy Joel - New Orleans Jazz and Heritage Festival - 2013-04-27.mkv
Format : Matroska
Format version : Version 2
File size : 1.42 GiB
Duration : 22mn 52s
Overall bit rate : 8 892 Kbps
Encoded date : UTC 2013-06-19 13:41:59
Writing application : mkvmerge v6.2.0 ('Promised Land') built on Apr 28 2013 12:22:01
Writing library : libebml v1.3.0 + libmatroska v1.4.0
Video
ID : 1
Format : AVC
Format/Info : Advanced Video Codec
Format profile : High@L4.0
Format settings, CABAC : Yes
Format settings, ReFrames : 4 frames
Codec ID : V_MPEG4/ISO/AVC
Duration : 22mn 52s
Bit rate : 8 331 Kbps
Width : 1 920 pixels
Height : 1 080 pixels
Display aspect ratio : 16:9
Frame rate mode : Constant
Frame rate : 29.970 fps
Standard : Component
Color space : YUV
Chroma subsampling : 4:2:0
Bit depth : 8 bits
Scan type : MBAFF
Bits/(Pixel*Frame) : 0.134
Stream size : 1.33 GiB (94%)
Default : Yes
Forced : No
Color primaries : BT.709
Transfer characteristics : BT.709
Matrix coefficients : BT.709
Audio
ID : 2
Format : AC-3
Format/Info : Audio Coding 3
Mode extension : CM (complete main)
Format settings, Endianness : Big
Codec ID : A_AC3
Duration : 22mn 52s
Bit rate mode : Constant
Bit rate : 384 Kbps
Channel(s) : 6 channels
Channel positions : Front: L C R, Side: L R, LFE
Sampling rate : 48.0 KHz
Bit depth : 16 bits
Compression mode : Lossy
Stream size : 62.8 MiB (4%)
Default : Yes
Forced : No
[cybertorrent.ru].t41486.torrent 
Торрент: Зарегистрирован [ 2018-03-19 15:15 ] · 31833990F5DD358DEEBB3E6F16B7FC31E4208010

Скачать .torrent

Скачать

15 KB

Статус: проверено
Скачан: 0 раз
Размер: 1,42 GB
Профиль [ЛС]
Показать сообщения:    

Текущее время: 24-Апр 18:19

Часовой пояс: UTC ± 0



Вы не можете начинать темы
Вы не можете отвечать на сообщения
Вы не можете редактировать свои сообщения
Вы не можете удалять свои сообщения
Вы не можете голосовать в опросах
Вы не можете прикреплять файлы к сообщениям
Вы можете скачивать файлы