Статистика раздачи
Размер:  8,02 GB   |    Зарегистрирован:  1 месяц 3 дня   |    Скачан:  0 раз

Полного источника не было: Никогда

 
   
 
 

torrents.pl ®

Пол:
Не указан
Стаж:
2 месяца 7 дней
Сообщений:
93

Baron RojoКоллекция альбомов

Жанр: Heavy Metal Страна: Spain
Аудиокодек: FLAC/APE (*.flac) Битрейт аудио: lossless
Источник (релизер): what.cd/MMT/kickass.to/Adamsfile
Продолжительность:19:02:00
Наличие сканов в содержимом раздачи: да

Студийные альбомы

1981 - Larga vida al Rock and Roll


Год издания: 1990
Аудиокодек: WV (*wv)
Тип рипа: image+.cue
Издатель (лейбл): Serdisco
Номер по каталогу: 50612173
Продолжительность:35:36
01. Con botas sucias
02. Anda suelto satanas
03. El Pobre
04. Los desertores del Rock
05. Efluvios
06. Larga vida al Rock and Roll
07. El presidente
08. Chica de la ciudad
09. Baron Rojo

Лог создания рипа

EAC extraction logfile from 4. January 2007, 19:22 for CD
Baron Rojo / Larga vida al Rock and Roll
Used drive : LITE-ON DVDRW SOHW-832S Adapter: 0 ID: 0
Read mode : Secure with NO C2, accurate stream, disable cache
Read offset correction : 12
Overread into Lead-In and Lead-Out : No
Used output format : C:\Archivos de programa\Exact Audio Copy\wavpack.exe (User Defined Encoder)
32 kBit/s
Additional command line options : -hm -w "Cuesheet=@*.cue" -w "Artist=%a" -w "Album=%g" -w "Year=%y" -w "Genre=%m" %s %d
Other options :
Fill up missing offset samples with silence : Yes
Delete leading and trailing silent blocks : No
Installed external ASPI interface
Range status and errors
Selected range
Filename F:\BARON.ROJO.[1981].[CD].Larga.Vida.Al.Rock.And.Roll.[EAC-ZIP.WV].By.Luchador.[MeTaLMaDNeSS_TeaM]\CDImage.wv.wav
Peak level 100.0 %
Range quality 99.9 %
CRC 5A10BBC8
Copy OK
No errors occured
End of status report

Содержание индексной карты (.CUE)

PERFORMER "Baron Rojo"
TITLE "Larga vida al Rock and Roll"
FILE "CDImage.wv" WAVE
TRACK 01 AUDIO
TITLE "Con botas sucias"
PERFORMER "Baron Rojo"
INDEX 00 00:00:00
INDEX 01 00:00:12
TRACK 02 AUDIO
TITLE "Anda suelto satanas"
PERFORMER "Baron Rojo"
INDEX 00 04:11:12
INDEX 01 04:14:12
TRACK 03 AUDIO
TITLE "El Pobre"
PERFORMER "Baron Rojo"
INDEX 00 07:49:12
INDEX 01 07:51:12
TRACK 04 AUDIO
TITLE "Los desertores del Rock"
PERFORMER "Baron Rojo"
INDEX 00 11:26:12
INDEX 01 11:28:12
TRACK 05 AUDIO
TITLE "Efluvios"
PERFORMER "Baron Rojo"
INDEX 00 15:44:12
INDEX 01 15:46:12
TRACK 06 AUDIO
TITLE "Larga vida al Rock and Roll"
PERFORMER "Baron Rojo"
INDEX 00 17:48:12
INDEX 01 17:50:12
TRACK 07 AUDIO
TITLE "El presidente"
PERFORMER "Baron Rojo"
INDEX 00 21:53:12
INDEX 01 21:56:12
TRACK 08 AUDIO
TITLE "Chica de la ciudad"
PERFORMER "Baron Rojo"
INDEX 00 25:51:12
INDEX 01 25:54:12
TRACK 09 AUDIO
TITLE "Baron Rojo"
PERFORMER "Baron Rojo"
INDEX 00 29:53:12
INDEX 01 29:55:12

Лог проверки качества

1983413602 376642268 Baron Rojo - Larga vida al Rock and Roll.wav
auCDtect: CD records authenticity detector, version 0.8.2
Copyright (c) 2004 Oleg Berngardt. All rights reserved.
Copyright (c) 2004 Alexander Djourik. All rights reserved.
------------------------------------------------------------
Processing file: [Baron Rojo - Larga vida al Rock and Roll.wav]
------------------------------------------------------------
This track looks like CDDA with probability 100%
------------------------------------------------------------
Final Conclusion:
------------------------------------------------------------
These tracks looks like CDDA with probability 100%

1982 - Volumen Brutal (English)


Год издания: 1982
Аудиокодек: FLAC (*flac)
Тип рипа: image+.cue
Издатель (лейбл): SerDisco
Номер по каталогу: 74321/34062 2
Продолжительность:41:18
01 - Isolation Ward
02 - Rockers go to Hell
03 - Give Me the Chance
04 - Termites
05 - Flowers of Evil
06 - Stand Up
07 - Someone's Loving You
08 - Concert for Them
09 - You're Telling Me
10 - The Baron Fly Over England

Лог создания рипа

EAC extrae el archivo del registro desde 31. Marzo 2004, 14:11 para el CD
Artista desconocido / Tнtulo desconocido
Unidad Usada: LG CD-RW CED-8080B Adapter: 2 ID: 0
Modo de Lectura: Seguro sin C2, con Flujo Preciso, con desactivar Cache
Correcciуn Combinada de Lectura/Escritura del Balance: 86
Leer por encima de la sesiуn inicial y final del CD : No
Usar Formato de Salida: Rutinas internas del WAV
44.100 Hz; 16 Bit; Estйreo
Otras Opciones:
Rellenar muestras pйrdidas del balance con silencios : Si
Eliminar bloques de silencios al principio y final : No
Interfaz Win32 para Windows (NT/2000/XP)
Lнmite erroneo
Seleccionar Lнmite
Nombre de archivo D:\Documents and Settings\Javi.OVERKILL\Escritorio\CDImage.wav
Nivel de pico 95.5 %
Calidad de lнmite 100.0 %
CRC 960615B2
Copia realizada
No existen errores
Fin de la informaciуn de estado

Содержание индексной карты (.CUE)

REM GENRE Metal
REM DATE 1982
PERFORMER "Baron Rojo"
TITLE "Volumen Brutal (Ingles)"
FILE "CDImage.ape" WAVE
TRACK 01 AUDIO
TITLE "Isolation Ward"
PERFORMER "Baron Rojo"
INDEX 01 00:00:00
TRACK 02 AUDIO
TITLE "Rockers go to Hell"
PERFORMER "Baron Rojo"
INDEX 00 02:50:30
INDEX 01 03:41:30
TRACK 03 AUDIO
TITLE "Give Me the Chance"
PERFORMER "Baron Rojo"
INDEX 01 08:00:40
TRACK 04 AUDIO
TITLE "Termites"
PERFORMER "Baron Rojo"
INDEX 00 09:56:36
INDEX 01 11:45:50
TRACK 05 AUDIO
TITLE "Flowers of Evil"
PERFORMER "Baron Rojo"
INDEX 00 14:54:65
INDEX 01 15:54:10
TRACK 06 AUDIO
TITLE "Stand Up"
PERFORMER "Baron Rojo"
INDEX 01 20:52:05
TRACK 07 AUDIO
TITLE "Someone's Loving You"
PERFORMER "Baron Rojo"
INDEX 00 25:43:32
INDEX 01 25:56:05
TRACK 08 AUDIO
TITLE "Concert for Them"
PERFORMER "Baron Rojo"
INDEX 01 30:03:30
TRACK 09 AUDIO
TITLE "You're Telling Me"
PERFORMER "Baron Rojo"
INDEX 01 34:54:70
TRACK 10 AUDIO
TITLE "The Baron Fly Over England"
PERFORMER "Baron Rojo"
INDEX 00 37:41:40
INDEX 01 38:33:20

Лог проверки качества

1561404799 437166284 Cdimage.wav
auCDtect: CD records authenticity detector, version 0.8.2
Copyright (c) 2004 Oleg Berngardt. All rights reserved.
Copyright (c) 2004 Alexander Djourik. All rights reserved.
------------------------------------------------------------
Processing file: [Cdimage.wav]
------------------------------------------------------------
This track looks like CDDA with probability 100%
------------------------------------------------------------
Final Conclusion:
------------------------------------------------------------
These tracks looks like CDDA with probability 100%

1983 - Metalmorfosis


Источник (релизер): LUCHADOR
Год издания: 1991
Аудиокодек: WAV (*wav)
Тип рипа: image+.cue
Издатель (лейбл): SerDisco
Номер по каталогу: 50612341
Продолжительность:44:00
01. Casi me mato
02. Rockero indomable
03. Tierra de vándalos
04. ¿Qué puedo hacer?
05. Siempre estás allí
06. Hiroshima
07. El malo
08. Diosa razón
09. Se escapa el tiempo

Лог создания рипа

EAC extraction logfile from 5. January 2007, 11:56 for CD
Barуn Rojo / Metalmorfosis
Used drive : LITE-ON DVDRW SOHW-832S Adapter: 0 ID: 0
Read mode : Secure with NO C2, accurate stream, disable cache
Read offset correction : 12
Overread into Lead-In and Lead-Out : No
Used output format : C:\Archivos de programa\Exact Audio Copy\wavpack.exe (User Defined Encoder)
32 kBit/s
Additional command line options : -hm -w "Cuesheet=@*.cue" -w "Artist=%a" -w "Album=%g" -w "Year=%y" -w "Genre=%m" %s %d
Other options :
Fill up missing offset samples with silence : Yes
Delete leading and trailing silent blocks : No
Installed external ASPI interface
Range status and errors
Selected range
Filename F:\BARON.ROJO.[1983].[CD].Metalmorfosis.[EAC-ZIP.WV].By.Luchador.[MeTaLMaDNeSS_TeaM]\CDImage.wv.wav
Peak level 100.0 %
Range quality 100.0 %
CRC 7D2CC316
Copy OK
No errors occured
End of status report

Содержание индексной карты (.CUE)

PERFORMER "Barуn Rojo"
TITLE "Metalmorfosis"
FILE "CDImage.wv" WAVE
TRACK 01 AUDIO
TITLE "Casi me mato"
PERFORMER "Barуn Rojo"
INDEX 00 00:00:00
INDEX 01 00:00:37
TRACK 02 AUDIO
TITLE "Rockero indomable"
PERFORMER "Barуn Rojo"
INDEX 00 03:41:37
INDEX 01 03:43:37
TRACK 03 AUDIO
TITLE "Tierra de vбndalos"
PERFORMER "Barуn Rojo"
INDEX 00 07:42:37
INDEX 01 07:43:37
TRACK 04 AUDIO
TITLE "їQuй puedo hacer?"
PERFORMER "Barуn Rojo"
INDEX 00 11:25:37
INDEX 01 11:28:37
TRACK 05 AUDIO
TITLE "Siempre estбs allн"
PERFORMER "Barуn Rojo"
INDEX 00 15:57:37
INDEX 01 15:59:37
TRACK 06 AUDIO
TITLE "Hiroshima"
PERFORMER "Barуn Rojo"
INDEX 00 22:28:37
INDEX 01 22:31:37
TRACK 07 AUDIO
TITLE "El malo"
PERFORMER "Barуn Rojo"
INDEX 00 29:17:37
INDEX 01 29:18:37
TRACK 08 AUDIO
TITLE "Diosa razуn"
PERFORMER "Barуn Rojo"
INDEX 00 34:43:37
INDEX 01 34:45:37
TRACK 09 AUDIO
TITLE "Se escapa el tiempo"
PERFORMER "Barуn Rojo"
INDEX 00 39:01:37
INDEX 01 39:04:37

Лог проверки качества

5067638 465783068 CDImage.wav
auCDtect: CD records authenticity detector, version 0.8.2
Copyright (c) 2004 Oleg Berngardt. All rights reserved.
Copyright (c) 2004 Alexander Djourik. All rights reserved.
------------------------------------------------------------
Processing file: [CDImage.wav]
------------------------------------------------------------
This track looks like CDDA with probability 100%
------------------------------------------------------------
Final Conclusion:
------------------------------------------------------------
These tracks looks like CDDA with probability 100%

1985 - En un lugar de la marcha


Источник (релизер): LUCHADOR
Год издания: 2006
Аудиокодек: WAV (*wav)
Тип рипа: image+.cue
Издатель (лейбл): SerDisco
Номер по каталогу: 74321602142
Продолжительность:42:11
01. Breakthoven
02. El Baile de los Malditos
03. Chicos del Rock
04. Caso Perdido
05. Cuerdas de Acero
06. No Ver, No Hablar, No oír
07. Tras de Tí
08. Hijos de Caín

Лог создания рипа

EAC extraction logfile from 13. January 2007, 20:36 for CD
Barуn Rojo / En Un Lugar De La Marcha
Used drive : LITE-ON DVDRW SOHW-832S Adapter: 0 ID: 0
Read mode : Secure with NO C2, accurate stream, disable cache
Read offset correction : 12
Overread into Lead-In and Lead-Out : No
Used output format : C:\Archivos de programa\Exact Audio Copy\wavpack.exe (User Defined Encoder)
32 kBit/s
Additional command line options : -hm -w "Cuesheet=@*.cue" -w "Artist=%a" -w "Album=%g" -w "Year=%y" -w "Genre=%m" %s %d
Other options :
Fill up missing offset samples with silence : Yes
Delete leading and trailing silent blocks : No
Installed external ASPI interface
Range status and errors
Selected range
Filename F:\BARON.ROJO.[2006].[CD].En.Un.Lugar.De.La.Marcha.[EAC-ZIP.WV].By.Luchador.[MeTaLMaDNess.TeaM]\CDImage.wv.wav
Peak level 99.9 %
Range quality 100.0 %
CRC 1AE58C39
Copy OK
No errors occured
End of status report

Содержание индексной карты (.CUE)

PERFORMER "Barуn Rojo"
TITLE "En Un Lugar De La Marcha"
FILE "CDImage.wv" WAVE
TRACK 01 AUDIO
TITLE "Breakthoven"
PERFORMER "Barуn Rojo"
INDEX 01 00:00:00
TRACK 02 AUDIO
TITLE "El Baile de los Malditos"
PERFORMER "Barуn Rojo"
INDEX 01 05:26:67
TRACK 03 AUDIO
TITLE "Chicos del Rock"
PERFORMER "Barуn Rojo"
INDEX 00 09:50:14
INDEX 01 09:50:15
TRACK 04 AUDIO
TITLE "Caso Perdido"
PERFORMER "Barуn Rojo"
INDEX 00 15:12:39
INDEX 01 15:12:40
TRACK 05 AUDIO
TITLE "Cuerdas de Acero"
PERFORMER "Barуn Rojo"
INDEX 00 20:57:44
INDEX 01 20:57:45
TRACK 06 AUDIO
TITLE "No Ver, No Hablar, No Oir"
PERFORMER "Barуn Rojo"
INDEX 00 25:42:39
INDEX 01 25:42:40
TRACK 07 AUDIO
TITLE "Tras De Ti"
PERFORMER "Barуn Rojo"
INDEX 00 31:26:14
INDEX 01 31:26:15
TRACK 08 AUDIO
TITLE "Hijos de Caнn"
PERFORMER "Barуn Rojo"
INDEX 00 36:12:09
INDEX 01 36:12:10

Лог проверки качества

579863255 446444924 Baron Rojo - En Un Lugar De La Marcha.wav
auCDtect: CD records authenticity detector, version 0.8.2
Copyright (c) 2004 Oleg Berngardt. All rights reserved.
Copyright (c) 2004 Alexander Djourik. All rights reserved.
------------------------------------------------------------
Processing file: [Baron Rojo - En Un Lugar De La Marcha.wav]
------------------------------------------------------------
This track looks like CDDA with probability 100%
------------------------------------------------------------
Final Conclusion:
------------------------------------------------------------
These tracks looks like CDDA with probability 100%

1987 - Tierra de nadie


Источник (релизер): flordemetal
Год издания: 1987
Аудиокодек: APE (*ape)
Тип рипа: image+.cue
Издатель (лейбл): SerDisco
Номер по каталогу: 74321602142
Продолжительность:44:36
1 Pico de Oro (5:14)
2 Pedal (5:25)
3 Voz de Su Amo (4:41)
4 Tierra de Nadie (6:26)
5 Señor Inspector (4:00)
6 Sombras en la Noche (5:57)
7 Pobre Madrid (5:07)
8 Precio (7:42)

Лог создания рипа

EAC extraction logfile from 19. November 2007, 19:16 for CD
Barуn Rojo / Tierra De Nadie
Used drive : HL-DT-STDVDRAM GSA-4167B Adapter: 2 ID: 0
Read mode : Secure with NO C2, accurate stream, disable cache
Read offset correction : 667
Overread into Lead-In and Lead-Out : No
Used output format : C:\Archivos de programa\Exact Audio Copy\MAC.EXE (Monkey's Audio Lossless Encoder)
High Lossless Compression
Other options :
Fill up missing offset samples with silence : Yes
Delete leading and trailing silent blocks : No
Native Win32 interface for Win NT & 2000
Range status and errors
Selected range
Filename C:\Documents and Settings\ROBERTO\Escritorio\CDImage.wav
Peak level 99.9 %
Range quality 99.9 %
CRC 2A540470
Copy OK
No errors occured
End of status report

Содержание индексной карты (.CUE)

PERFORMER "Barуn Rojo"
TITLE "Tierra De Nadie"
FILE "CDImage.ape" WAVE
TRACK 01 AUDIO
TITLE "Pico de Oro"
PERFORMER "Barуn Rojo"
INDEX 01 00:00:00
TRACK 02 AUDIO
TITLE "El Pedal"
PERFORMER "Barуn Rojo"
INDEX 01 05:14:67
TRACK 03 AUDIO
TITLE "La Voz de su Amo"
PERFORMER "Barуn Rojo"
INDEX 00 10:40:14
INDEX 01 10:40:15
TRACK 04 AUDIO
TITLE "Tierra de Nadie"
PERFORMER "Barуn Rojo"
INDEX 01 15:21:35
TRACK 05 AUDIO
TITLE "Seсor Inspector"
PERFORMER "Barуn Rojo"
INDEX 01 21:47:65
TRACK 06 AUDIO
TITLE "Sombras en la Noche"
PERFORMER "Barуn Rojo"
INDEX 00 25:48:28
INDEX 01 25:48:30
TRACK 07 AUDIO
TITLE "Pobre Madrid"
PERFORMER "Barуn Rojo"
INDEX 00 31:46:19
INDEX 01 31:46:20
TRACK 08 AUDIO
TITLE "El Precio del Futuro"
PERFORMER "Barуn Rojo"
INDEX 00 36:53:24
INDEX 01 36:53:25

Лог проверки качества

1825537253 472069964 CDImage.wav
auCDtect: CD records authenticity detector, version 0.8.2
Copyright (c) 2004 Oleg Berngardt. All rights reserved.
Copyright (c) 2004 Alexander Djourik. All rights reserved.
------------------------------------------------------------
Processing file: [CDImage.wav]
------------------------------------------------------------
This track looks like CDDA with probability 100%
------------------------------------------------------------
Final Conclusion:
------------------------------------------------------------
These tracks looks like CDDA with probability 100%

1988 - No va mas


Источник (релизер): LUCHADOR
Год издания: 1988
Аудиокодек: WV (*wv)
Тип рипа: image+.cue
Издатель (лейбл): SerDisco
Номер по каталогу: 74321602322
Продолжительность:45:29
01. Travesia Urbana
02. Cansado De Esperar
03. El Gladiador
04. En Tinieblas
05. Los Domingos Son Aburridos
06. Kamikaze
07. Trampa Y Cartón
08. Carga Y Descarga
09. Celtas Cortos
10. Mil Años Luz

Лог создания рипа

EAC extraction logfile from 3. March 2007, 12:30 for CD
Barуn Rojo / ЎNo Va Mбs!
Used drive : HL-DT-STCD-RW GCE-8525B Adapter: 0 ID: 1
Read mode : Secure with NO C2, accurate stream, disable cache
Read offset correction : 6
Overread into Lead-In and Lead-Out : No
Used output format : C:\Archivos de programa\Exact Audio Copy\wavpack.exe (User Defined Encoder)
32 kBit/s
Additional command line options : -hm -w "Cuesheet=@*.cue" -w "Artist=%a" -w "Album=%g" -w "Year=%y" -w "Genre=%m" %s %d
Other options :
Fill up missing offset samples with silence : Yes
Delete leading and trailing silent blocks : No
Installed external ASPI interface
Range status and errors
Selected range
Filename J:\subidas a internet\CDImage.wv.wav
Peak level 99.9 %
Range quality 100.0 %
CRC 86B21C21
Copy OK
No errors occured
End of status report

Содержание индексной карты (.CUE)

PERFORMER "Barуn Rojo"
TITLE "ЎNo Va Mбs!"
FILE "CDImage.wv" WAVE
TRACK 01 AUDIO
TITLE "Travesнa Urbana"
PERFORMER "Barуn Rojo"
INDEX 01 00:00:00
TRACK 02 AUDIO
TITLE "Cansado De Esperar"
PERFORMER "Barуn Rojo"
INDEX 01 04:40:00
TRACK 03 AUDIO
TITLE "El Gladiador"
PERFORMER "Barуn Rojo"
INDEX 01 09:29:10
TRACK 04 AUDIO
TITLE "En Tinieblas"
PERFORMER "Barуn Rojo"
INDEX 01 13:45:55
TRACK 05 AUDIO
TITLE "Los Domingos Son Muy Aburridos"
PERFORMER "Barуn Rojo"
INDEX 01 18:53:25
TRACK 06 AUDIO
TITLE "Kamikaze"
PERFORMER "Barуn Rojo"
INDEX 01 22:36:10
TRACK 07 AUDIO
TITLE "Trampa Y Cartуn"
PERFORMER "Barуn Rojo"
INDEX 01 26:13:40
TRACK 08 AUDIO
TITLE "Carga Y Descarga"
PERFORMER "Barуn Rojo"
INDEX 01 30:54:05
TRACK 09 AUDIO
TITLE "Celtas Cortos"
PERFORMER "Barуn Rojo"
INDEX 01 35:01:40
TRACK 10 AUDIO
TITLE "Mil Aсos Luz"
PERFORMER "Barуn Rojo"
INDEX 01 40:26:25

Лог проверки качества

15320684 481325084 CDImage.wav
auCDtect: CD records authenticity detector, version 0.8.2
Copyright (c) 2004 Oleg Berngardt. All rights reserved.
Copyright (c) 2004 Alexander Djourik. All rights reserved.
------------------------------------------------------------
Processing file: [CDImage.wav]
------------------------------------------------------------
This track looks like CDDA with probability 100%
------------------------------------------------------------
Final Conclusion:
------------------------------------------------------------
These tracks looks like CDDA with probability 100%

1989 - Obstinato


Источник (релизер): flordemetal
Год издания: 1989
Аудиокодек: APE (*ape)
Тип рипа: image+.cue
Издатель (лейбл): SerDisco
Номер по каталогу: 74321602302
Продолжительность:49:20
1-Vampiros y banqueros
2-Por vez primera
3-Get on your knees
4-Tren fantasma
5-Colapso en la M-30
6-Paraíso terrenal
7-Dueño de mi destino
8-Herencia letal
9-Seguimos vivos
10-Pura sangre

Лог создания рипа

EAC extraction logfile from 22. November 2007, 19:00 for CD
Barуn Rojo / Obstinato
Used drive : HL-DT-STDVDRAM GSA-4167B Adapter: 2 ID: 0
Read mode : Secure with NO C2, accurate stream, disable cache
Read offset correction : 667
Overread into Lead-In and Lead-Out : No
Used output format : C:\Archivos de programa\Exact Audio Copy\MAC.EXE (Monkey's Audio Lossless Encoder)
High Lossless Compression
Other options :
Fill up missing offset samples with silence : Yes
Delete leading and trailing silent blocks : No
Native Win32 interface for Win NT & 2000
Range status and errors
Selected range
Filename C:\Documents and Settings\Escritorio\CDImage.wav
Peak level 99.9 %
Range quality 100.0 %
CRC CAFA46FC
Copy OK
No errors occured
End of status report

Содержание индексной карты (.CUE)

PERFORMER "Barуn Rojo"
TITLE "Obstinato"
FILE "CDImage.ape" WAVE
TRACK 01 AUDIO
TITLE "Vampiros Y Banqueros"
PERFORMER "Barуn Rojo"
INDEX 01 00:00:00
TRACK 02 AUDIO
TITLE "Por Vez Primera"
PERFORMER "Barуn Rojo"
INDEX 01 05:27:10
TRACK 03 AUDIO
TITLE "Get On Your Knees"
PERFORMER "Barуn Rojo"
INDEX 01 10:22:35
TRACK 04 AUDIO
TITLE "Tren Fantasma"
PERFORMER "Barуn Rojo"
INDEX 01 14:13:60
TRACK 05 AUDIO
TITLE "Colapso En La M-30"
PERFORMER "Barуn Rojo"
INDEX 01 19:14:35
TRACK 06 AUDIO
TITLE "Paraнso Terrenal"
PERFORMER "Barуn Rojo"
INDEX 01 24:25:00
TRACK 07 AUDIO
TITLE "Dueсo De Mi Destino"
PERFORMER "Barуn Rojo"
INDEX 01 28:19:10
TRACK 08 AUDIO
TITLE "Herencia Letal"
PERFORMER "Barуn Rojo"
INDEX 01 32:46:10
TRACK 09 AUDIO
TITLE "Seguimos Vivos"
PERFORMER "Barуn Rojo"
INDEX 01 39:57:35
TRACK 10 AUDIO
TITLE "Pura Sangre"
PERFORMER "Barуn Rojo"
INDEX 01 44:34:25

Лог проверки качества

2699846764 522132284 CDImage.wav
auCDtect: CD records authenticity detector, version 0.8.2
Copyright (c) 2004 Oleg Berngardt. All rights reserved.
Copyright (c) 2004 Alexander Djourik. All rights reserved.
------------------------------------------------------------
Processing file: [CDImage.wav]
------------------------------------------------------------
This track looks like CDDA with probability 100%
------------------------------------------------------------
Final Conclusion:
------------------------------------------------------------
These tracks looks like CDDA with probability 100%

1992 – Desafio


Источник (релизер): flordemetal
Год издания: 1992
Аудиокодек: APE (*ape)
Тип рипа: image+.cue
Издатель (лейбл): AVISPA
Номер по каталогу: ACD-003
Продолжительность:51:57
1. Te Espero En El Infierno
2. Alí-Babá Y Los Cuarenta
3. Exorcismo
4. Noches de Rock'N'Roll
5. El Enemigo A Abatir
6. Rock'Stimulacion
7. Político
8. Señor Censor
9. Hijos Del Blues (Generación 10.Perdida)
11. Girls Got Rhythm

Лог создания рипа

Exact Audio Copy V0.99 prebeta 5 from 4. May 2009
EAC extraction logfile from 16. October 2010, 17:14
Baron Rojo / Desafio
Used drive : HL-DT-STDVD-RAM GH22LP20 Adapter: 2 ID: 0
Read mode : Secure
Utilize accurate stream : Yes
Defeat audio cache : Yes
Make use of C2 pointers : No
Read offset correction : 102
Overread into Lead-In and Lead-Out : No
Fill up missing offset samples with silence : Yes
Delete leading and trailing silent blocks : No
Null samples used in CRC calculations : Yes
Used interface : Native Win32 interface for Win NT & 2000
Used output format : Monkey's Audio Lossless Encoder
Selected bitrate : High Lossless Compression
Quality : High
Add ID3 tag : Yes
Command line compressor : C:\Archivos de programa\Monkey's Audio\MAC.exe
TOC of the extracted CD
Track | Start | Length | Start sector | End sector
---------------------------------------------------------
1 | 0:00.32 | 4:38.55 | 32 | 20936
2 | 4:39.12 | 4:49.38 | 20937 | 42649
3 | 9:28.50 | 4:27.20 | 42650 | 62694
4 | 13:55.70 | 5:48.35 | 62695 | 88829
5 | 19:44.30 | 4:26.72 | 88830 | 108851
6 | 24:11.27 | 5:50.28 | 108852 | 135129
7 | 30:01.55 | 6:12.50 | 135130 | 163079
8 | 36:14.30 | 5:03.20 | 163080 | 185824
9 | 41:17.50 | 7:08.02 | 185825 | 217926
10 | 48:25.52 | 3:31.00 | 217927 | 233751
Range status and errors
Selected range
Filename C:\Documents and Settings\BlackCrystal™\Escritorio\Baron Rojo - Desafio.wav
Peak level 100.0 %
Range quality 100.0 %
Copy CRC BB58115F
Copy OK
No errors occurred
End of status report

Содержание индексной карты (.CUE)

REM GENRE "Heavy Metal"
REM DATE 1992
REM DISCID 8C0C2C0A
REM COMMENT "ExactAudioCopy v0.99pb5"
PERFORMER "Baron Rojo"
TITLE "Desafio"
FILE "Baron Rojo - Desafio.ape" WAVE
TRACK 01 AUDIO
TITLE "Te Espero En El Infierno"
PERFORMER "Baron Rojo"
INDEX 00 00:00:00
INDEX 01 00:00:32
TRACK 02 AUDIO
TITLE "Ali-Baba Y Los Cuarenta"
PERFORMER "Baron Rojo"
INDEX 00 04:36:74
INDEX 01 04:39:12
TRACK 03 AUDIO
TITLE "Exorcismo"
PERFORMER "Baron Rojo"
INDEX 00 09:26:37
INDEX 01 09:28:50
TRACK 04 AUDIO
TITLE "Noches De Rock'N'Roll"
PERFORMER "Baron Rojo"
INDEX 00 13:53:57
INDEX 01 13:55:70
TRACK 05 AUDIO
TITLE "El Enemigo A Abatir"
PERFORMER "Baron Rojo"
INDEX 00 19:42:17
INDEX 01 19:44:30
TRACK 06 AUDIO
TITLE "Rock'Stimulacion"
PERFORMER "Baron Rojo"
INDEX 00 24:09:14
INDEX 01 24:11:27
TRACK 07 AUDIO
TITLE "Politico"
PERFORMER "Baron Rojo"
INDEX 00 29:59:42
INDEX 01 30:01:55
TRACK 08 AUDIO
TITLE "Senor Censor"
PERFORMER "Baron Rojo"
INDEX 00 36:12:17
INDEX 01 36:14:30
TRACK 09 AUDIO
TITLE "Hijos Del Blues (Generacion Perdida)"
PERFORMER "Baron Rojo"
INDEX 00 41:15:37
INDEX 01 41:17:50
TRACK 10 AUDIO
TITLE "Girls Got Rhythm"
PERFORMER "Baron Rojo"
INDEX 00 48:23:39
INDEX 01 48:25:52

Лог проверки качества

1429367970 549784748 Baron Rojo - Desafio.wav
auCDtect: CD records authenticity detector, version 0.8.2
Copyright (c) 2004 Oleg Berngardt. All rights reserved.
Copyright (c) 2004 Alexander Djourik. All rights reserved.
------------------------------------------------------------
Processing file: [Baron Rojo - Desafio.wav]
------------------------------------------------------------
This track looks like CDDA with probability 100%
------------------------------------------------------------
Final Conclusion:
------------------------------------------------------------
These tracks looks like CDDA with probability 100%

1997 - Arma secreta


Источник (релизер): flordemetal
Год издания: 1997
Аудиокодек: APE (*ape)
Тип рипа: image+.cue
Издатель (лейбл): Vitamina Records
Номер по каталогу: 9116-CD
Продолжительность:49:28
01. Bajo Tierra
02. Arma Secreta
03. Todo me da igual
04. No Hay Solución sin
05. Aquí Estoy
06. No Odas
07. Fugitivo
08. Blues del Teléfono
09. Comunicación
10. Sobre Este Mundo Hostil
11. Robinsong
12. Hielo al Rojo

Лог создания рипа

EAC extraction logfile from 12. March 2008, 20:46 for CD
Baron Rojo / Arma Secreta
Used drive : HL-DT-STDVDRAM GSA-4167B Adapter: 2 ID: 0
Read mode : Secure with NO C2, accurate stream, disable cache
Read offset correction : 667
Overread into Lead-In and Lead-Out : No
Used output format : C:\Archivos de programa\Exact Audio Copy\MAC.EXE (Monkey's Audio Lossless Encoder)
High Lossless Compression
Other options :
Fill up missing offset samples with silence : Yes
Delete leading and trailing silent blocks : No
Native Win32 interface for Win NT & 2000
Range status and errors
Selected range
Filename C:\Documents and Settings\Escritorio\Baron Rojo - Arma Secreta\ArmaSecreta.wav
Peak level 100.0 %
Range quality 100.0 %
CRC E2441FAD
Copy OK
No errors occured
End of status report

Содержание индексной карты (.CUE)

PERFORMER "Baron Rojo"
TITLE "Arma Secreta"
FILE "ArmaSecreta.ape" WAVE
TRACK 01 AUDIO
TITLE "Baron Rojo - Bajo Tierra"
PERFORMER "Baron Rojo"
INDEX 00 00:00:00
INDEX 01 00:00:33
TRACK 02 AUDIO
TITLE "Baron Rojo - Arma Secreta"
PERFORMER "Baron Rojo"
INDEX 00 04:10:44
INDEX 01 04:10:45
TRACK 03 AUDIO
TITLE "Baron Rojo - Todo me da Igual"
PERFORMER "Baron Rojo"
INDEX 00 08:50:32
INDEX 01 08:51:33
TRACK 04 AUDIO
TITLE "Baron Rojo - No Hay Solucion Sin Rock & Roll"
PERFORMER "Baron Rojo"
INDEX 00 12:51:70
INDEX 01 12:52:70
TRACK 05 AUDIO
TITLE "Baron Rojo - Aqui Estoy"
PERFORMER "Baron Rojo"
INDEX 00 17:39:07
INDEX 01 17:39:08
TRACK 06 AUDIO
TITLE "Baron Rojo - No Odas"
PERFORMER "Baron Rojo"
INDEX 00 22:06:69
INDEX 01 22:07:58
TRACK 07 AUDIO
TITLE "Baron Rojo - Fugitivo"
PERFORMER "Baron Rojo"
INDEX 00 24:38:44
INDEX 01 24:38:45
TRACK 08 AUDIO
TITLE "Baron Rojo - Blues del Telefono"
PERFORMER "Baron Rojo"
INDEX 00 29:28:69
INDEX 01 29:28:70
TRACK 09 AUDIO
TITLE "Baron Rojo - Comunicacion"
PERFORMER "Baron Rojo"
INDEX 00 33:43:67
INDEX 01 33:44:45
TRACK 10 AUDIO
TITLE "Baron Rojo - Sobre este Mundo Hostil"
PERFORMER "Baron Rojo"
INDEX 00 37:48:69
INDEX 01 37:48:70
TRACK 11 AUDIO
TITLE "Baron Rojo - Robinsong"
PERFORMER "Baron Rojo"
INDEX 00 42:22:02
INDEX 01 42:23:00
TRACK 12 AUDIO
TITLE "Baron Rojo - Hielo al Rojo"
PERFORMER "Baron Rojo"
INDEX 00 46:06:67
INDEX 01 46:06:68

Лог проверки качества

3606410201 523637564 ArmaSecreta.wav
auCDtect: CD records authenticity detector, version 0.8.2
Copyright (c) 2004 Oleg Berngardt. All rights reserved.
Copyright (c) 2004 Alexander Djourik. All rights reserved.
------------------------------------------------------------
Processing file: [ArmaSecreta.wav]
------------------------------------------------------------
This track looks like CDDA with probability 100%
------------------------------------------------------------
Final Conclusion:
------------------------------------------------------------
These tracks looks like CDDA with probability 100%

2001 - 20+


Аудиокодек: flac (*flac)
Тип рипа: image+.cue
Издатель (лейбл): Zero
Номер по каталогу: 075.2
Продолжительность:57:23
01. Fronteras
02. Sigue
03. Vendiendo el juicio final
04. Famosas
05. Telebasura
06. Salvavidas
07. 20+
08. Sobrenatural
09. Quémame con tu piel
10. La zona siniestra
11. Como la letra de un blues
12. Canon-cañón

Лог создания рипа

Exact Audio Copy V1.3 from 2. September 2016
EAC extraction logfile from 12. September 2016, 22:09
Barón Rojo / 20+
Used drive : ATAPI DVD A DH16AASH Adapter: 1 ID: 0
Read mode : Secure
Utilize accurate stream : Yes
Defeat audio cache : Yes
Make use of C2 pointers : No
Read offset correction : 6
Overread into Lead-In and Lead-Out : No
Fill up missing offset samples with silence : Yes
Delete leading and trailing silent blocks : No
Null samples used in CRC calculations : Yes
Used interface : Native Win32 interface for Win NT & 2000
Used output format : User Defined Encoder
Selected bitrate : 32 kBit/s
Quality : High
Add ID3 tag : No
Command line compressor : C:\Program Files (x86)\Exact Audio Copy\FLAC.EXE
Additional command line options : -6 -V %source%
TOC of the extracted CD
Track | Start | Length | Start sector | End sector
---------------------------------------------------------
1 | 0:00.00 | 4:00.48 | 0 | 18047
2 | 4:00.48 | 4:07.31 | 18048 | 36603
3 | 8:08.04 | 4:22.04 | 36604 | 56257
4 | 12:30.08 | 4:40.39 | 56258 | 77296
5 | 17:10.47 | 5:17.12 | 77297 | 101083
6 | 22:27.59 | 6:10.22 | 101084 | 128855
7 | 28:38.06 | 5:00.28 | 128856 | 151383
8 | 33:38.34 | 5:39.34 | 151384 | 176842
9 | 39:17.68 | 4:54.51 | 176843 | 198943
10 | 44:12.44 | 4:47.00 | 198944 | 220468
11 | 48:59.44 | 4:41.41 | 220469 | 241584
12 | 53:41.10 | 3:42.17 | 241585 | 258251
13 | 59:55.27 | 6:26.20 | 269652 | 298621
Range status and errors
Selected range
Filename C:\tmp\rip\Barón - 20+\Barón Rojo - 20+.wav
Peak level 99.8 %
Extraction speed 7.5 X
Range quality 100.0 %
Copy CRC 7ABA0068
Copy OK
No errors occurred
AccurateRip summary
Track 1 not present in database
Track 2 not present in database
Track 3 not present in database
Track 4 not present in database
Track 5 not present in database
Track 6 not present in database
Track 7 not present in database
Track 8 not present in database
Track 9 not present in database
Track 10 not present in database
Track 11 not present in database
Track 12 not present in database
None of the tracks are present in the AccurateRip database
End of status report
---- CUETools DB Plugin V2.1.6
[CTDB TOCID: SgineZAkhyn74z1Tn_LwU5NRpfY-] found
Submit result: SgineZAkhyn74z1Tn_LwU5NRpfY- has been confirmed
Track | CTDB Status
1 | (1/1) Accurately ripped
2 | (1/1) Accurately ripped
3 | (1/1) Accurately ripped
4 | (1/1) Accurately ripped
5 | (1/1) Accurately ripped
6 | (1/1) Accurately ripped
7 | (1/1) Accurately ripped
8 | (1/1) Accurately ripped
9 | (1/1) Accurately ripped
10 | (1/1) Accurately ripped
11 | (1/1) Accurately ripped
12 | (1/1) Accurately ripped

Содержание индексной карты (.CUE)

REM GENRE Rock
REM DATE 2002
REM DISCID A00F8D0D
REM COMMENT "ExactAudioCopy v1.3"
PERFORMER "Barуn Rojo"
TITLE "20+"
REM COMPOSER ""
FILE "Baron Rojo - 20+.flac" WAVE
TRACK 01 AUDIO
TITLE "Fronteras"
PERFORMER "Barуn Rojo"
REM COMPOSER ""
INDEX 01 00:00:00
TRACK 02 AUDIO
TITLE "Sigue"
PERFORMER "Barуn Rojo"
REM COMPOSER ""
INDEX 00 03:58:49
INDEX 01 04:00:48
TRACK 03 AUDIO
TITLE "Vendiendo El Juicio Final"
PERFORMER "Barуn Rojo"
REM COMPOSER ""
INDEX 00 08:06:05
INDEX 01 08:08:04
TRACK 04 AUDIO
TITLE "Famosas"
PERFORMER "Barуn Rojo"
REM COMPOSER ""
INDEX 00 12:28:09
INDEX 01 12:30:08
TRACK 05 AUDIO
TITLE "Telebasura"
PERFORMER "Barуn Rojo"
REM COMPOSER ""
INDEX 00 17:08:48
INDEX 01 17:10:47
TRACK 06 AUDIO
TITLE "Salvavidas"
PERFORMER "Barуn Rojo"
REM COMPOSER ""
INDEX 00 22:25:60
INDEX 01 22:27:59
TRACK 07 AUDIO
TITLE "20+"
PERFORMER "Barуn Rojo"
REM COMPOSER ""
INDEX 00 28:36:07
INDEX 01 28:38:06
TRACK 08 AUDIO
TITLE "Sobrenatural"
PERFORMER "Barуn Rojo"
REM COMPOSER ""
INDEX 00 33:36:35
INDEX 01 33:38:34
TRACK 09 AUDIO
TITLE "Quйmame Con Tu Piel"
PERFORMER "Barуn Rojo"
REM COMPOSER ""
INDEX 00 39:15:69
INDEX 01 39:17:68
TRACK 10 AUDIO
TITLE "Como La Letra De Un Blues"
PERFORMER "Barуn Rojo"
REM COMPOSER ""
INDEX 00 44:10:45
INDEX 01 44:12:44
TRACK 11 AUDIO
TITLE "La Zona Siniestra"
PERFORMER "Barуn Rojo"
REM COMPOSER ""
INDEX 00 48:57:45
INDEX 01 48:59:44
TRACK 12 AUDIO
TITLE "Caсon-caсon"
PERFORMER "Barуn Rojo"
REM COMPOSER ""
INDEX 00 53:39:11
INDEX 01 53:41:10

Лог проверки качества

3140484791 607408748 Baron Rojo - 20+.wav
auCDtect: CD records authenticity detector, version 0.8.2
Copyright (c) 2004 Oleg Berngardt. All rights reserved.
Copyright (c) 2004 Alexander Djourik. All rights reserved.
------------------------------------------------------------
Processing file: [Baron Rojo - 20+.wav]
------------------------------------------------------------
This track looks like CDDA with probability 99%
------------------------------------------------------------
Final Conclusion:
------------------------------------------------------------
These tracks looks like CDDA with probability 100%

2003 - Perversiones


Источник (релизер): adamsfile
Год издания: 2003
Аудиокодек: APE (*ape)
Тип рипа: image+.cue
Издатель (лейбл): Zero Records
Продолжительность:75:32
1. "Spotlight Kid" (cover de Rainbow)
2. "Why Dontcha" (cover de West, Bruce and Laing)
3. "Loneliness" (cover de Grand Funk Railroad)
4. "Turn It Up" (cover de Ted Nugent)
5. "Assault Attack" (cover del Michael Schenker Group)
6. "Spanish Castle Magic" (cover de The Jimi Hendrix Experience)
7. "Shake My Tree" (cover de Coverdale Page)
8. "Good Lovin' Gone Bad" (cover de Bad Company)
9. "Neon Knigths" (cover de Black Sabbath)
10. "Hoochie Coochie Man" (cover de Willie Dixon, popularizado por Muddy Waters)
11. "Plynth (Water Down The Drain)" (cover del Jeff Beck Group)
12. "Crossroads (Cross Road Blues)" (cover de Robert Johnson)
13. "Pictures Of Home" (cover de Deep Purple)
14. "Move Over" (cover de Janis Joplin)
15. "What's Next To The Moon" (cover de AC/DC)
16. "Father Of Day, Father Of Night" (cover de Bob Dylan)

Лог создания рипа

EAC extraction logfile from 27. January 2004, 3:09 for CD
Barуn Rojo / Perversiones
Used drive : LITEON DVD-ROM LTD163 Adapter: 1 ID: 0
Read mode : Secure with NO C2, accurate stream, disable cache
Read offset correction : 594
Overread into Lead-In and Lead-Out : No
Used output format : Internal WAV Routines
44.100 Hz; 16 Bit; Stereo
Other options :
Fill up missing offset samples with silence : Yes
Delete leading and trailing silent blocks : No
Native Win32 interface for Win NT & 2000
Range status and errors
Selected range
Filename F:\MeTaLMaDNeS.TeaM\Barуn Rojo [CD] [2003] perversiones [EAC-APE] By Carpy [MeTaLMaDNeSS.TeaM]\CDImage.wav
Peak level 99.4 %
Range quality 100.0 %
CRC 4439F4D1
Copy OK
No errors occured
End of status report

Содержание индексной карты (.CUE)

REM GENRE Metal
REM DATE 2003
PERFORMER "Barуn Rojo"
TITLE "Perversiones"
FILE "CDImage.ape" WAVE
TRACK 01 AUDIO
TITLE "Spotlight Kid"
PERFORMER "Barуn Rojo"
INDEX 01 00:00:00
TRACK 02 AUDIO
TITLE "Why Dontcha"
PERFORMER "Barуn Rojo"
INDEX 00 04:50:14
INDEX 01 04:51:14
TRACK 03 AUDIO
TITLE "Loneliness"
PERFORMER "Barуn Rojo"
INDEX 00 08:13:33
INDEX 01 08:14:33
TRACK 04 AUDIO
TITLE "Turn It Up"
PERFORMER "Barуn Rojo"
INDEX 00 14:40:71
INDEX 01 14:41:71
TRACK 05 AUDIO
TITLE "Assault Attack"
PERFORMER "Barуn Rojo"
INDEX 00 18:14:46
INDEX 01 18:15:46
TRACK 06 AUDIO
TITLE "Spanish Castle Magic"
PERFORMER "Barуn Rojo"
INDEX 00 22:32:64
INDEX 01 22:33:64
TRACK 07 AUDIO
TITLE "Shake My Tree"
PERFORMER "Barуn Rojo"
INDEX 00 26:27:50
INDEX 01 26:28:50
TRACK 08 AUDIO
TITLE "Good Lovin' Gone Bad"
PERFORMER "Barуn Rojo"
INDEX 00 31:25:50
INDEX 01 31:27:50
TRACK 09 AUDIO
TITLE "Neon Knights"
PERFORMER "Barуn Rojo"
INDEX 00 35:09:72
INDEX 01 35:11:72
TRACK 10 AUDIO
TITLE "Hoochie Coochie Man"
PERFORMER "Barуn Rojo"
INDEX 00 39:08:54
INDEX 01 39:09:54
TRACK 11 AUDIO
TITLE "Plynth (Water Down The Rain)"
PERFORMER "Barуn Rojo"
INDEX 00 45:19:62
INDEX 01 45:20:62
TRACK 12 AUDIO
TITLE "Crossroads"
PERFORMER "Barуn Rojo"
INDEX 00 49:17:62
INDEX 01 49:19:62
TRACK 13 AUDIO
TITLE "Pictures Of Home"
PERFORMER "Barуn Rojo"
INDEX 00 53:35:40
INDEX 01 53:37:40
TRACK 14 AUDIO
TITLE "Move Over"
PERFORMER "Barуn Rojo"
INDEX 00 58:09:27
INDEX 01 58:11:27
TRACK 15 AUDIO
TITLE "What's Next To The Moon"
PERFORMER "Barуn Rojo"
INDEX 00 62:59:14
INDEX 01 63:00:14
TRACK 16 AUDIO
TITLE "Father Of Night"
PERFORMER "Barуn Rojo"
INDEX 00 66:53:09
INDEX 01 66:55:09

Лог проверки качества

561665616 799444844 CDImage.wav
auCDtect: CD records authenticity detector, version 0.8.2
Copyright (c) 2004 Oleg Berngardt. All rights reserved.
Copyright (c) 2004 Alexander Djourik. All rights reserved.
------------------------------------------------------------
Processing file: [CDImage.wav]
------------------------------------------------------------
This track looks like CDDA with probability 100%
------------------------------------------------------------
Final Conclusion:
------------------------------------------------------------
These tracks looks like CDDA with probability 100%

2005 - Volumen Bbrutal


Источник (релизер): adamsfile
Год издания: 2005
Аудиокодек: APE (*ape)
Тип рипа: image+.cue
Издатель (лейбл): Zero Records
Продолжительность:01:18:49
01. Incomunicaciуn
02. Los rockeros van al infierno
03. Dame la oportunidad
04. Son como hormigas
05. Las flores del mal
06. Resistirй
07. Satбnico plan (volumen brutal)
08. Concierto para ellos
09. Hermano del rock & roll
10. El barуn vuela sobre Inglaterra
11. Isolation Ward
12. Rockers Go to Hell
13. Give Me the Chance
14. Termites
15. Flowers of Evil
16. Stand Up
17. Someone's Loving You
18. Concert for Them
19. You're Telling Me

Лог создания рипа

Exact Audio Copy V1.0 beta 3 from 29. August 2011
EAC extraction logfile from 15. July 2014, 23:19
BARON ROJO / VolumenBbrutal
Used drive : SlimtypeDVD A DS8A5SH Adapter: 0 ID: 1
Read mode : Secure
Utilize accurate stream : Yes
Defeat audio cache : Yes
Make use of C2 pointers : No
Read offset correction : 6
Overread into Lead-In and Lead-Out : No
Fill up missing offset samples with silence : Yes
Delete leading and trailing silent blocks : No
Null samples used in CRC calculations : Yes
Used interface : Installed external ASPI interface
Used output format : Internal WAV Routines
Sample format : 44.100 Hz; 16 Bit; Stereo
TOC of the extracted CD
Track | Start | Length | Start sector | End sector
---------------------------------------------------------
1 | 0:00.00 | 3:40.00 | 0 | 16499
2 | 3:40.00 | 4:16.12 | 16500 | 35711
3 | 7:56.12 | 3:31.58 | 35712 | 51594
4 | 11:27.70 | 4:05.60 | 51595 | 70029
5 | 15:33.55 | 4:52.01 | 70030 | 91930
6 | 20:25.56 | 5:02.27 | 91931 | 114607
7 | 25:28.08 | 4:10.27 | 114608 | 133384
8 | 29:38.35 | 4:42.38 | 133385 | 154572
9 | 34:20.73 | 3:23.38 | 154573 | 169835
10 | 37:44.36 | 2:42.63 | 169836 | 182048
11 | 40:27.24 | 3:40.59 | 182049 | 198607
12 | 44:08.08 | 4:17.58 | 198608 | 217940
13 | 48:25.66 | 3:43.46 | 217941 | 234711
14 | 52:09.37 | 4:07.49 | 234712 | 253285
15 | 56:17.11 | 4:54.29 | 253286 | 275364
16 | 61:11.40 | 5:03.47 | 275365 | 298136
17 | 66:15.12 | 4:04.69 | 298137 | 316505
18 | 70:20.06 | 4:51.36 | 316506 | 338366
19 | 75:11.42 | 3:37.67 | 338367 | 354708
Range status and errors
Selected range
Filename C:\Users\TWR Travel\Desktop\BARON ROJO\1982 Volumen Brutal\BARON ROJO - VolumenBbrutal.wav
Peak level 99.4 %
Extraction speed 2.1 X
Range quality 100.0 %
Test CRC 23F0F11B
Copy CRC 23F0F11B
Copy OK
No errors occurred
AccurateRip summary
Track 1 cannot be verified as accurate (confidence 1) [D814091E], AccurateRip returned [E4EB0189] (AR v2)
Track 2 cannot be verified as accurate (confidence 1) [D52B63C7], AccurateRip returned [D5A715B3] (AR v2)
Track 3 cannot be verified as accurate (confidence 1) [A64192FE], AccurateRip returned [3FEA7561] (AR v2)
Track 4 cannot be verified as accurate (confidence 1) [F94171C1], AccurateRip returned [FCD89C97] (AR v2)
Track 5 cannot be verified as accurate (confidence 1) [7A459A02], AccurateRip returned [74C83FAD] (AR v2)
Track 6 cannot be verified as accurate (confidence 1) [8A93BF15], AccurateRip returned [338CAAB9] (AR v2)
Track 7 cannot be verified as accurate (confidence 1) [59A6B8A7], AccurateRip returned [7BC02443] (AR v2)
Track 8 cannot be verified as accurate (confidence 1) [0ECB0FC6], AccurateRip returned [270FAE59] (AR v2)
Track 9 cannot be verified as accurate (confidence 1) [E8DE594F], AccurateRip returned [BF42126E] (AR v2)
Track 10 cannot be verified as accurate (confidence 1) [E795E37D], AccurateRip returned [9A4FEDE0] (AR v2)
Track 11 cannot be verified as accurate (confidence 1) [BB55EAC1], AccurateRip returned [20A11E14] (AR v2)
Track 12 cannot be verified as accurate (confidence 1) [66CE7854], AccurateRip returned [C8E8DBC4] (AR v2)
Track 13 cannot be verified as accurate (confidence 1) [07964DE2], AccurateRip returned [F53A84CA] (AR v2)
Track 14 cannot be verified as accurate (confidence 1) [577B3FA5], AccurateRip returned [7BE1909B] (AR v2)
Track 15 cannot be verified as accurate (confidence 1) [B3832B2A], AccurateRip returned [719CA701] (AR v2)
Track 16 cannot be verified as accurate (confidence 1) [4FAEA8C5], AccurateRip returned [3F5457F3] (AR v2)
Track 17 cannot be verified as accurate (confidence 1) [A14D6A36], AccurateRip returned [A8A5A7DB] (AR v2)
Track 18 cannot be verified as accurate (confidence 1) [9DEA893C], AccurateRip returned [43EDE62D] (AR v2)
Track 19 cannot be verified as accurate (confidence 1) [008FCAA5], AccurateRip returned [03EB2A47] (AR v2)
No tracks could be verified as accurate
You may have a different pressing from the one(s) in the database
End of status report
---- CUETools DB Plugin V2.1.4
[CTDB TOCID: Y5WIficAOtYcfj9FFXTkAFZQZoQ-] found
Submit result: Y5WIficAOtYcfj9FFXTkAFZQZoQ- has been confirmed
Track | CTDB Status
1 | (2/2) Accurately ripped
2 | (2/2) Accurately ripped
3 | (2/2) Accurately ripped
4 | (2/2) Accurately ripped
5 | (2/2) Accurately ripped
6 | (2/2) Accurately ripped
7 | (2/2) Accurately ripped
8 | (2/2) Accurately ripped
9 | (2/2) Accurately ripped
10 | (2/2) Accurately ripped
11 | (2/2) Accurately ripped
12 | (2/2) Accurately ripped
13 | (2/2) Accurately ripped
14 | (2/2) Accurately ripped
15 | (2/2) Accurately ripped
16 | (2/2) Accurately ripped
17 | (2/2) Accurately ripped
18 | (2/2) Accurately ripped
19 | (2/2) Accurately ripped
==== Log checksum 2EAD14124999A03D5D7813567C327CFAD5E34E9C887AA13CA128C97734F05DB3 ====

Содержание индексной карты (.CUE)

REM GENRE Spanish Rock
REM DATE 1982 (2005)
REM DISCID 15127913
REM COMMENT ExactAudioCopy v1.0b3
PERFORMER "BARON ROJO"
TITLE "Volumen Brutal"
FILE "BARON ROJO - VolumenBbrutal.ape" WAVE
TRACK 01 AUDIO
TITLE "Incomunicaciуn"
ISRC ES5021300507
FLAGS DCP
INDEX 01 00:00:00
TRACK 02 AUDIO
TITLE "Los rockeros van al infierno"
ISRC ES5021300508
FLAGS DCP
INDEX 01 03:40:00
TRACK 03 AUDIO
TITLE "Dame la oportunidad"
ISRC ES5021300508
FLAGS DCP
INDEX 01 07:56:12
TRACK 04 AUDIO
TITLE "Son como hormigas"
ISRC ES5021300510
FLAGS DCP
INDEX 01 11:27:70
TRACK 05 AUDIO
TITLE "Las flores del mal"
ISRC ES5021300511
FLAGS DCP
INDEX 01 15:33:55
TRACK 06 AUDIO
TITLE "Resistirй"
ISRC ES5021300511
FLAGS DCP
INDEX 01 20:25:56
TRACK 07 AUDIO
TITLE "Satбnico plan (volumen brutal)"
ISRC ES5021300513
FLAGS DCP
INDEX 01 25:28:08
TRACK 08 AUDIO
TITLE "Concierto para ellos"
ISRC ES5021300514
FLAGS DCP
INDEX 01 29:38:35
TRACK 09 AUDIO
TITLE "Hermano del rock & roll"
ISRC ES5021300515
FLAGS DCP
INDEX 01 34:20:73
TRACK 10 AUDIO
TITLE "El barуn vuela sobre Inglaterra"
ISRC ES5021300516
FLAGS DCP
INDEX 01 37:44:36
TRACK 11 AUDIO
TITLE "Isolation Ward"
ISRC ES5021300516
FLAGS DCP
INDEX 01 40:27:24
TRACK 12 AUDIO
TITLE "Rockers Go to Hell"
ISRC ES5021300518
FLAGS DCP
INDEX 01 44:08:08
TRACK 13 AUDIO
TITLE "Give Me the Chance"
ISRC ES5021300519
FLAGS DCP
INDEX 01 48:25:66
TRACK 14 AUDIO
TITLE "Termites"
ISRC ES5021300520
FLAGS DCP
INDEX 01 52:09:37
TRACK 15 AUDIO
TITLE "Flowers of Evil"
ISRC ES5021300521
FLAGS DCP
INDEX 01 56:17:11
TRACK 16 AUDIO
TITLE "Stand Up"
ISRC ES5021300522
FLAGS DCP
INDEX 01 61:11:40
TRACK 17 AUDIO
TITLE "Someone's Loving You"
ISRC ES5021300523
FLAGS DCP
INDEX 01 66:15:12
TRACK 18 AUDIO
TITLE "Concert for Them"
ISRC ES5021300524
FLAGS DCP
INDEX 01 70:20:06
TRACK 19 AUDIO
TITLE "You're Telling Me"
ISRC ES5021300525
FLAGS DCP
INDEX 01 75:11:42

Лог проверки качества

3021163174 834275612 BARON ROJO - VolumenBbrutal.wav
auCDtect: CD records authenticity detector, version 0.8.2
Copyright (c) 2004 Oleg Berngardt. All rights reserved.
Copyright (c) 2004 Alexander Djourik. All rights reserved.
------------------------------------------------------------
Processing file: [BARON ROJO - VolumenBbrutal.wav]
------------------------------------------------------------
This track looks like CDDA with probability 100%
------------------------------------------------------------
Final Conclusion:
------------------------------------------------------------
These tracks looks like CDDA with probability 100%

2006 - Ultimasmentes


Источник (релизер): eto
Год издания: 2006
Аудиокодек: APE (*ape)
Тип рипа: image+.cue
Издатель (лейбл): Santo Grial
Номер по каталогу: 200 CD
Продолжительность:55:19
01. Primerasmentes 1:11
02. Al Final, Perderán 4:58
03. Hombre De Las Cavernas 4:12
04. Tu Infierno 4.58
05. Nada Que Hablar 4:32
06. Rock'N'Roll Gang 4:52
07. Caballo Desbocado 4:01
08. Leyenda Negra 6:22
09. El Porvenir, Un Castigo 3:19
10. En El Centro De La Tierra 4:12
11. Siervo De La Confusión 5:03
12. También Por Ti 6:45
13. Ultimasmentes 0:47

Лог создания рипа

EAC extraction logfile from 5. December 2006, 17:13 for CD
Barуn Rojo / Ultimasmentes
Used drive : HL-DT-STCD-RW GCE-8523B Adapter: 1 ID: 1
Read mode : Secure with NO C2, accurate stream, disable cache
Read offset correction : 6
Overread into Lead-In and Lead-Out : No
Used output format : C:\Archivos de programa\Exact Audio Copy\MAC.EXE (Monkey's Audio Lossless Encoder)
High Lossless Compression
Other options :
Fill up missing offset samples with silence : Yes
Delete leading and trailing silent blocks : No
Native Win32 interface for Win NT & 2000
Range status and errors
Selected range
Filename C:\Documents and Settings\steve harris\Escritorio\CDImage.wav
Peak level 100.0 %
Range quality 100.0 %
CRC 60D3A338
Copy OK
No errors occured
End of status report

Содержание индексной карты (.CUE)

PERFORMER "Barуn Rojo"
TITLE "Ultimasmentes"
FILE "CDImage.ape" WAVE
TRACK 01 AUDIO
TITLE "Primerasmentes"
PERFORMER "Barуn Rojo"
INDEX 01 00:00:00
TRACK 02 AUDIO
TITLE "Al Final, Perderбn"
PERFORMER "Barуn Rojo"
INDEX 01 01:11:02
TRACK 03 AUDIO
TITLE "Hombre De Las Cavernas"
PERFORMER "Barуn Rojo"
INDEX 00 06:08:54
INDEX 01 06:09:55
TRACK 04 AUDIO
TITLE "Tu Infierno"
PERFORMER "Barуn Rojo"
INDEX 00 10:22:18
INDEX 01 10:22:19
TRACK 05 AUDIO
TITLE "Nada Que Hablar"
PERFORMER "Barуn Rojo"
INDEX 00 15:20:68
INDEX 01 15:21:03
TRACK 06 AUDIO
TITLE "Rock'N'Roll Gang"
PERFORMER "Barуn Rojo"
INDEX 00 19:53:32
INDEX 01 19:53:41
TRACK 07 AUDIO
TITLE "Caballo Desbocado"
PERFORMER "Barуn Rojo"
INDEX 00 24:45:44
INDEX 01 24:46:01
TRACK 08 AUDIO
TITLE "Leyenda Negra"
PERFORMER "Barуn Rojo"
INDEX 00 28:46:70
INDEX 01 28:47:01
TRACK 09 AUDIO
TITLE "El Porvenir, Un Castigo"
PERFORMER "Barуn Rojo"
INDEX 01 35:09:68
TRACK 10 AUDIO
TITLE "En El Centro De La Tierra"
PERFORMER "Barуn Rojo"
INDEX 01 38:29:38
TRACK 11 AUDIO
TITLE "Siervo De La Confusiуn"
PERFORMER "Barуn Rojo"
INDEX 00 42:42:13
INDEX 01 42:42:15
TRACK 12 AUDIO
TITLE "Tambiйn Por Ti"
PERFORMER "Barуn Rojo"
INDEX 00 47:45:11
INDEX 01 47:46:09
TRACK 13 AUDIO
TITLE "Ultimasmentes"
PERFORMER "Barуn Rojo"
INDEX 01 54:31:38

Лог проверки качества

250871768 585473996 CDImage.wav
auCDtect: CD records authenticity detector, version 0.8.2
Copyright (c) 2004 Oleg Berngardt. All rights reserved.
Copyright (c) 2004 Alexander Djourik. All rights reserved.
------------------------------------------------------------
Processing file: [CDImage.wav]
------------------------------------------------------------
This track looks like CDDA with probability 100%
------------------------------------------------------------
Final Conclusion:
------------------------------------------------------------
These tracks looks like CDDA with probability 100%

2012 - Tommy Barón


Год издания: 2012
Тип рипа: tracks+.cue
Издатель (лейбл): Producciones Como Dios Manda
Номер по каталогу: PCDM 10469
Источник (релизер): mitra64
Продолжительность:39:28; 37:29

CD1

01.Obertura
02.Un barón
03.1921
04.Viaje asombroso
05.Ráfagas
06.Un ciego verá
07.Navidad
08.El primo Kevin
09.La reina ácida - con Eva Amaral
10.Undertura

Лог создания рипа

Exact Audio Copy V1.0 beta 3 from 29. August 2011
EAC extraction logfile from 11. December 2012, 12:06
Baron Rojo / Tommy Baron
Used drive : TSSTcorpCDDVDW SE-S084F Adapter: 1 ID: 0
Read mode : Secure
Utilize accurate stream : Yes
Defeat audio cache : Yes
Make use of C2 pointers : No
Read offset correction : 6
Overread into Lead-In and Lead-Out : No
Fill up missing offset samples with silence : Yes
Delete leading and trailing silent blocks : No
Null samples used in CRC calculations : Yes
Used interface : Native Win32 interface for Win NT & 2000
Gap handling : Appended to previous track
Used output format : User Defined Encoder
Selected bitrate : 1024 kBit/s
Quality : High
Add ID3 tag : No
Command line compressor : C:\Program Files\Exact Audio Copy\FLAC\FLAC.EXE
Additional command line options : -8 -V -T "ARTIST=%artist%" -T "TITLE=%title%" -T "ALBUM=%albumtitle%" -T "DATE=%year%" -T "TRACKNUMBER=%tracknr%" -T "GENRE=%genre%" -T "PERFORMER=%albuminterpret%" -T "COMPOSER=%composer%" %haslyrics%--tag-from-file=LYRICS="%lyricsfile%"%haslyrics% -T "ALBUMARTIST=%albumartist%" -T "ALBUM ARTIST=%albumartist%" -T "DISCNUMBER=%cdnumber%" -T "TOTALDISCS=%totalcds%" -T "TOTALTRACKS=%numtracks%" -T "COMMENT=%comment%" %source% -o %dest%
TOC of the extracted CD
Track | Start | Length | Start sector | End sector
---------------------------------------------------------
1 | 0:00.00 | 5:24.18 | 0 | 24317
2 | 5:24.18 | 0:41.48 | 24318 | 27440
3 | 6:05.66 | 3:31.31 | 27441 | 43296
4 | 9:37.22 | 3:25.29 | 43297 | 58700
5 | 13:02.51 | 3:47.28 | 58701 | 75753
6 | 16:50.04 | 2:10.42 | 75754 | 85545
7 | 19:00.46 | 4:08.66 | 85546 | 104211
8 | 23:09.37 | 5:02.47 | 104212 | 126908
9 | 28:12.09 | 3:32.71 | 126909 | 142879
10 | 31:45.05 | 7:42.57 | 142880 | 177586
Track 1
Filename C:\Users\Seba\Desktop\Baron Rojo.TommyBaron\CD1\01.-Obertura.wav
Pre-gap length 0:00:02.00
Peak level 100.0 %
Extraction speed 3.0 X
Track quality 100.0 %
Test CRC AEC1DC13
Copy CRC AEC1DC13
Track not present in AccurateRip database
Copy OK
Track 2
Filename C:\Users\Seba\Desktop\Baron Rojo.TommyBaron\CD1\02.-Un varon.wav
Peak level 89.1 %
Extraction speed 1.8 X
Track quality 100.0 %
Test CRC ACF48A36
Copy CRC ACF48A36
Track not present in AccurateRip database
Copy OK
Track 3
Filename C:\Users\Seba\Desktop\Baron Rojo.TommyBaron\CD1\03.-1921.wav
Peak level 100.0 %
Extraction speed 3.1 X
Track quality 100.0 %
Test CRC 1011C63D
Copy CRC 1011C63D
Track not present in AccurateRip database
Copy OK
Track 4
Filename C:\Users\Seba\Desktop\Baron Rojo.TommyBaron\CD1\04.-Viaje asombroso.wav
Peak level 100.0 %
Extraction speed 3.3 X
Track quality 100.0 %
Test CRC AA27A837
Copy CRC AA27A837
Track not present in AccurateRip database
Copy OK
Track 5
Filename C:\Users\Seba\Desktop\Baron Rojo.TommyBaron\CD1\05.-Rafagas.wav
Peak level 100.0 %
Extraction speed 2.8 X
Track quality 99.9 %
Test CRC 4825B0F1
Copy CRC 4825B0F1
Track not present in AccurateRip database
Copy OK
Track 6
Filename C:\Users\Seba\Desktop\Baron Rojo.TommyBaron\CD1\06.-Un ciego vera.wav
Peak level 100.0 %
Extraction speed 3.3 X
Track quality 100.0 %
Test CRC 87A53E71
Copy CRC 87A53E71
Track not present in AccurateRip database
Copy OK
Track 7
Filename C:\Users\Seba\Desktop\Baron Rojo.TommyBaron\CD1\07.-Navidad.wav
Peak level 100.0 %
Extraction speed 3.8 X
Track quality 100.0 %
Test CRC 3CE910C8
Copy CRC 3CE910C8
Track not present in AccurateRip database
Copy OK
Track 8
Filename C:\Users\Seba\Desktop\Baron Rojo.TommyBaron\CD1\08.-El primo Kevin.wav
Peak level 100.0 %
Extraction speed 4.1 X
Track quality 100.0 %
Test CRC 9ECB5970
Copy CRC 9ECB5970
Track not present in AccurateRip database
Copy OK
Track 9
Filename C:\Users\Seba\Desktop\Baron Rojo.TommyBaron\CD1\09.-La reina acida.wav
Peak level 100.0 %
Extraction speed 4.1 X
Track quality 100.0 %
Test CRC CBADC290
Copy CRC CBADC290
Track not present in AccurateRip database
Copy OK
Track 10
Filename C:\Users\Seba\Desktop\Baron Rojo.TommyBaron\CD1\10.-Undertura.wav
Peak level 100.0 %
Extraction speed 4.7 X
Track quality 100.0 %
Test CRC 7BCCD9A7
Copy CRC 7BCCD9A7
Track not present in AccurateRip database
Copy OK
None of the tracks are present in the AccurateRip database
No errors occurred
End of status report
---- CUETools DB Plugin V2.1.3
[CTDB TOCID: _pZuaMBTORDhC1NI971ZEHWz9aA-] disk not present in database, Submit result: _pZuaMBTORDhC1NI971ZEHWz9aA- has been uploaded
==== Log checksum 3D40C1131145DC75E63E8A99BC474C98CA546A4461B2AD5DF6B7FA9E3C2CBB66 ====

Содержание индексной карты (.CUE)

REM GENRE "Hard Rock"
REM DATE 2012
REM DISCID 84093F0A
REM COMMENT "ExactAudioCopy v1.0b3"
CATALOG 8435030104695
PERFORMER "Baron Rojo"
TITLE "Tommy Baron"
FILE "01.-Obertura.wav" WAVE
TRACK 01 AUDIO
TITLE "Obertura"
PERFORMER "Baron Rojo"
ISRC ES56G1200101
FLAGS DCP
INDEX 01 00:00:00
FILE "02.-Un varon.wav" WAVE
TRACK 02 AUDIO
TITLE "Un varon"
PERFORMER "Baron Rojo"
ISRC ES56G1200102
FLAGS DCP
INDEX 01 00:00:00
FILE "03.-1921.wav" WAVE
TRACK 03 AUDIO
TITLE "1921"
PERFORMER "Baron Rojo"
ISRC ES56G1200103
FLAGS DCP
INDEX 01 00:00:00
FILE "04.-Viaje asombroso.wav" WAVE
TRACK 04 AUDIO
TITLE "Viaje asombroso"
PERFORMER "Baron Rojo"
ISRC ES56G1200104
FLAGS DCP
INDEX 01 00:00:00
FILE "05.-Rafagas.wav" WAVE
TRACK 05 AUDIO
TITLE "Rafagas"
PERFORMER "Baron Rojo"
ISRC ES56G1200105
FLAGS DCP
INDEX 01 00:00:00
FILE "06.-Un ciego vera.wav" WAVE
TRACK 06 AUDIO
TITLE "Un ciego vera"
PERFORMER "Baron Rojo"
ISRC ES56G1200106
FLAGS DCP
INDEX 01 00:00:00
FILE "07.-Navidad.wav" WAVE
TRACK 07 AUDIO
TITLE "Navidad"
PERFORMER "Baron Rojo"
ISRC ES56G1200107
FLAGS DCP
INDEX 01 00:00:00
FILE "08.-El primo Kevin.wav" WAVE
TRACK 08 AUDIO
TITLE "El primo Kevin"
PERFORMER "Baron Rojo"
ISRC ES56G1200108
FLAGS DCP
INDEX 01 00:00:00
FILE "09.-La reina acida.wav" WAVE
TRACK 09 AUDIO
TITLE "La reina acida"
PERFORMER "Baron Rojo"
ISRC ES56G1200109
FLAGS DCP
INDEX 01 00:00:00
FILE "10.-Undertura.wav" WAVE
TRACK 10 AUDIO
TITLE "Undertura"
PERFORMER "Baron Rojo"
ISRC ES56G1200110
FLAGS DCP
INDEX 01 00:00:00

Лог проверки качества

2923074572 57195980 01.-Obertura.wav
3391198696 7345340 02.-Un varon.wav
2713296153 37293356 03.-1921.wav
2037383818 36230252 04.-Viaje asombroso.wav
1286554221 40108700 05.-Rafagas.wav
1149501560 23030828 06.-Un ciego vera.wav
376145155 43902476 07.-Navidad.wav
3987841554 53383388 08.-El primo Kevin.wav
1995802450 37563836 09.-La reina acida.wav
3452934116 81630908 10.-Undertura.wav
auCDtect: CD records authenticity detector, version 0.8.2
Copyright (c) 2004 Oleg Berngardt. All rights reserved.
Copyright (c) 2004 Alexander Djourik. All rights reserved.
------------------------------------------------------------
Processing file: [01.-Obertura.wav]
------------------------------------------------------------
This track looks like CDDA with probability 100%
------------------------------------------------------------
Processing file: [02.-Un varon.wav]
------------------------------------------------------------
This track looks like CDDA with probability 100%
------------------------------------------------------------
Processing file: [03.-1921.wav]
------------------------------------------------------------
This track looks like CDDA with probability 100%
------------------------------------------------------------
Processing file: [04.-Viaje asombroso.wav]
------------------------------------------------------------
This track looks like CDDA with probability 100%
------------------------------------------------------------
Processing file: [05.-Rafagas.wav]
------------------------------------------------------------
This track looks like CDDA with probability 100%
------------------------------------------------------------
Processing file: [06.-Un ciego vera.wav]
------------------------------------------------------------
This track looks like CDDA with probability 100%
------------------------------------------------------------
Processing file: [07.-Navidad.wav]
------------------------------------------------------------
This track looks like CDDA with probability 99%
------------------------------------------------------------
Processing file: [08.-El primo Kevin.wav]
------------------------------------------------------------
This track looks like CDDA with probability 100%
------------------------------------------------------------
Processing file: [09.-La reina acida.wav]
------------------------------------------------------------
This track looks like CDDA with probability 100%
------------------------------------------------------------
Processing file: [10.-Undertura.wav]
------------------------------------------------------------
This track looks like CDDA with probability 100%
------------------------------------------------------------
Final Conclusion:
------------------------------------------------------------
These tracks looks like CDDA with probability 100%

CD2

01.¿Y tú crees que está bien?
02.Al enredar
03.El rey pinball
04.Encontré un doctor
05.Hacia el espejo
06.Tommy ¿puedes oírme?
07.Romper el espejo
08.Sensación
09.¡Vaya milagro!
10.Sally Simpson
11.Libre soy
12.Ven a esta casa
13.El parque de Tommy
14.No lo aceptaremos

Лог создания рипа

Exact Audio Copy V1.0 beta 3 from 29. August 2011
EAC extraction logfile from 11. December 2012, 12:41
Baron Rojo / Tommy Baron.cd2
Used drive : TSSTcorpCDDVDW SE-S084F Adapter: 1 ID: 0
Read mode : Secure
Utilize accurate stream : Yes
Defeat audio cache : Yes
Make use of C2 pointers : No
Read offset correction : 6
Overread into Lead-In and Lead-Out : No
Fill up missing offset samples with silence : Yes
Delete leading and trailing silent blocks : No
Null samples used in CRC calculations : Yes
Used interface : Native Win32 interface for Win NT & 2000
Gap handling : Appended to previous track
Used output format : User Defined Encoder
Selected bitrate : 1024 kBit/s
Quality : High
Add ID3 tag : No
Command line compressor : C:\Program Files\Exact Audio Copy\FLAC\FLAC.EXE
Additional command line options : -8 -V -T "ARTIST=%artist%" -T "TITLE=%title%" -T "ALBUM=%albumtitle%" -T "DATE=%year%" -T "TRACKNUMBER=%tracknr%" -T "GENRE=%genre%" -T "PERFORMER=%albuminterpret%" -T "COMPOSER=%composer%" %haslyrics%--tag-from-file=LYRICS="%lyricsfile%"%haslyrics% -T "ALBUMARTIST=%albumartist%" -T "ALBUM ARTIST=%albumartist%" -T "DISCNUMBER=%cdnumber%" -T "TOTALDISCS=%totalcds%" -T "TOTALTRACKS=%numtracks%" -T "COMMENT=%comment%" %source% -o %dest%
TOC of the extracted CD
Track | Start | Length | Start sector | End sector
---------------------------------------------------------
1 | 0:00.00 | 0:49.70 | 0 | 3744
2 | 0:49.70 | 1:25.34 | 3745 | 10153
3 | 2:15.29 | 3:21.08 | 10154 | 25236
4 | 5:36.37 | 0:19.41 | 25237 | 26702
5 | 5:56.03 | 4:07.29 | 26703 | 45256
6 | 10:03.32 | 1:27.36 | 45257 | 51817
7 | 11:30.68 | 1:43.34 | 51818 | 59576
8 | 13:14.27 | 3:01.60 | 59577 | 73211
9 | 16:16.12 | 0:21.15 | 73212 | 74801
10 | 16:37.27 | 4:45.36 | 74802 | 96212
11 | 21:22.63 | 2:44.59 | 96213 | 108571
12 | 24:07.47 | 5:14.57 | 108572 | 132178
13 | 29:22.29 | 1:01.41 | 132179 | 136794
14 | 30:23.70 | 7:04.56 | 136795 | 168650
Track 1
Filename C:\Users\Seba\Desktop\Baron Rojo.TommyBaron\CD2\01.-Y tu crees que esta bien.wav
Pre-gap length 0:00:02.00
Peak level 100.0 %
Extraction speed 1.8 X
Track quality 100.0 %
Test CRC 7BCB4B61
Copy CRC 7BCB4B61
Track not present in AccurateRip database
Copy OK
Track 2
Filename C:\Users\Seba\Desktop\Baron Rojo.TommyBaron\CD2\02.-Al enredar.wav
Peak level 100.0 %
Extraction speed 2.3 X
Track quality 100.0 %
Test CRC B4A8B87B
Copy CRC B4A8B87B
Track not present in AccurateRip database
Copy OK
Track 3
Filename C:\Users\Seba\Desktop\Baron Rojo.TommyBaron\CD2\03.-El rey del pinball.wav
Peak level 100.0 %
Extraction speed 2.9 X
Track quality 100.0 %
Test CRC 37A69969
Copy CRC 37A69969
Track not present in AccurateRip database
Copy OK
Track 4
Filename C:\Users\Seba\Desktop\Baron Rojo.TommyBaron\CD2\04.-Encontre un doctor.wav
Peak level 100.0 %
Extraction speed 1.2 X
Track quality 100.0 %
Test CRC 60625C61
Copy CRC 60625C61
Track not present in AccurateRip database
Copy OK
Track 5
Filename C:\Users\Seba\Desktop\Baron Rojo.TommyBaron\CD2\05.-Hacia el espejo.wav
Peak level 100.0 %
Extraction speed 3.2 X
Track quality 100.0 %
Test CRC 78FD7EA2
Copy CRC 78FD7EA2
Track not present in AccurateRip database
Copy OK
Track 6
Filename C:\Users\Seba\Desktop\Baron Rojo.TommyBaron\CD2\06.-Tommy,puedes oirme.wav
Peak level 100.0 %
Extraction speed 2.7 X
Track quality 100.0 %
Test CRC 34F4E9DF
Copy CRC 34F4E9DF
Track not present in AccurateRip database
Copy OK
Track 7
Filename C:\Users\Seba\Desktop\Baron Rojo.TommyBaron\CD2\07.-Romper el espejo.wav
Peak level 100.0 %
Extraction speed 2.9 X
Track quality 100.0 %
Test CRC FDB6084F
Copy CRC FDB6084F
Track not present in AccurateRip database
Copy OK
Track 8
Filename C:\Users\Seba\Desktop\Baron Rojo.TommyBaron\CD2\08.-Sensacion.wav
Peak level 100.0 %
Extraction speed 3.4 X
Track quality 100.0 %
Test CRC 745F9F90
Copy CRC 745F9F90
Track not present in AccurateRip database
Copy OK
Track 9
Filename C:\Users\Seba\Desktop\Baron Rojo.TommyBaron\CD2\09.-Vaya milagro!.wav
Peak level 100.0 %
Extraction speed 0.7 X
Track quality 99.4 %
Test CRC EB888586
Copy CRC EB888586
Track not present in AccurateRip database
Copy OK
Track 10
Filename C:\Users\Seba\Desktop\Baron Rojo.TommyBaron\CD2\10.-Sally Simpson.wav
Peak level 100.0 %
Extraction speed 3.8 X
Track quality 100.0 %
Test CRC 2789910B
Copy CRC 2789910B
Track not present in AccurateRip database
Copy OK
Track 11
Filename C:\Users\Seba\Desktop\Baron Rojo.TommyBaron\CD2\11.-Libre soy.wav
Peak level 100.0 %
Extraction speed 3.6 X
Track quality 100.0 %
Test CRC 2695F17D
Copy CRC 2695F17D
Track not present in AccurateRip database
Copy OK
Track 12
Filename C:\Users\Seba\Desktop\Baron Rojo.TommyBaron\CD2\12.-Ven a esta casa.wav
Peak level 100.0 %
Extraction speed 4.1 X
Track quality 100.0 %
Test CRC B119EF2A
Copy CRC B119EF2A
Track not present in AccurateRip database
Copy OK
Track 13
Filename C:\Users\Seba\Desktop\Baron Rojo.TommyBaron\CD2\13.-El parque de Tommy.wav
Peak level 100.0 %
Extraction speed 3.0 X
Track quality 100.0 %
Test CRC CBF97144
Copy CRC CBF97144
Track not present in AccurateRip database
Copy OK
Track 14
Filename C:\Users\Seba\Desktop\Baron Rojo.TommyBaron\CD2\14.-No lo aceptaremos.wav
Peak level 100.0 %
Extraction speed 4.6 X
Track quality 100.0 %
Test CRC 104CFF0D
Copy CRC 104CFF0D
Track not present in AccurateRip database
Copy OK
None of the tracks are present in the AccurateRip database
No errors occurred
End of status report
---- CUETools DB Plugin V2.1.3
[CTDB TOCID: p20OpqJ1lYhzT8v1XmSoV6AHo_g-] disk not present in database, Submit result: p20OpqJ1lYhzT8v1XmSoV6AHo_g- has been uploaded
==== Log checksum F3F125397C0B7A0178EB46549BC60DA97901229F4BCDC5514A1A19AD23ABCDF9 ====

Содержание индексной карты (.CUE)

REM GENRE "Hard Rock"
REM DATE 2012
REM DISCID D908C80E
REM COMMENT "ExactAudioCopy v1.0b3"
CATALOG 8435030104695
PERFORMER "Baron Rojo"
TITLE "Tommy Baron.cd2"
FILE "01.-Y tu crees que esta bien.wav" WAVE
TRACK 01 AUDIO
TITLE "Y tu crees que esta bien?"
PERFORMER "Baron Rojo"
ISRC ES56G1200111
FLAGS DCP
INDEX 01 00:00:00
FILE "02.-Al enredar.wav" WAVE
TRACK 02 AUDIO
TITLE "Al enredar"
PERFORMER "Baron Rojo"
ISRC ES56G1200112
FLAGS DCP
INDEX 01 00:00:00
FILE "03.-El rey del pinball.wav" WAVE
TRACK 03 AUDIO
TITLE "El rey del pinball"
PERFORMER "Baron Rojo"
ISRC ES56G1200113
FLAGS DCP
INDEX 01 00:00:00
FILE "04.-Encontre un doctor.wav" WAVE
TRACK 04 AUDIO
TITLE "Encontre un doctor"
PERFORMER "Baron Rojo"
ISRC ES56G1200114
FLAGS DCP
INDEX 01 00:00:00
FILE "05.-Hacia el espejo.wav" WAVE
TRACK 05 AUDIO
TITLE "Hacia el espejo"
PERFORMER "Baron Rojo"
ISRC ES56G1200115
FLAGS DCP
INDEX 01 00:00:00
FILE "06.-Tommy,puedes oirme.wav" WAVE
TRACK 06 AUDIO
TITLE "Tommy,puedes oirme?"
PERFORMER "Baron Rojo"
ISRC ES56G1200116
FLAGS DCP
INDEX 01 00:00:00
FILE "07.-Romper el espejo.wav" WAVE
TRACK 07 AUDIO
TITLE "Romper el espejo"
PERFORMER "Baron Rojo"
ISRC ES56G1200117
FLAGS DCP
INDEX 01 00:00:00
FILE "08.-Sensacion.wav" WAVE
TRACK 08 AUDIO
TITLE "Sensacion"
PERFORMER "Baron Rojo"
ISRC ES56G1200118
FLAGS DCP
INDEX 01 00:00:00
FILE "09.-Vaya milagro!.wav" WAVE
TRACK 09 AUDIO
TITLE "Vaya milagro!"
PERFORMER "Baron Rojo"
ISRC ES56G1200119
FLAGS DCP
INDEX 01 00:00:00
FILE "10.-Sally Simpson.wav" WAVE
TRACK 10 AUDIO
TITLE "Sally Simpson"
PERFORMER "Baron Rojo"
ISRC ES56G1200120
FLAGS DCP
INDEX 01 00:00:00
FILE "11.-Libre soy.wav" WAVE
TRACK 11 AUDIO
TITLE "Libre soy"
PERFORMER "Baron Rojo"
ISRC ES56G1200121
FLAGS DCP
INDEX 01 00:00:00
FILE "12.-Ven a esta casa.wav" WAVE
TRACK 12 AUDIO
TITLE "Ven a esta casa"
PERFORMER "Baron Rojo"
ISRC ES56G1200122
FLAGS DCP
INDEX 01 00:00:00
FILE "13.-El parque de Tommy.wav" WAVE
TRACK 13 AUDIO
TITLE "El parque de Tommy"
PERFORMER "Baron Rojo"
ISRC ES56G1200122
FLAGS DCP
INDEX 01 00:00:00
FILE "14.-No lo aceptaremos.wav" WAVE
TRACK 14 AUDIO
TITLE "No lo aceptaremos"
PERFORMER "Baron Rojo"
ISRC ES56G1200124
FLAGS DCP
INDEX 01 00:00:00

Лог проверки качества

211261993 8808284 01.-Y tu crees que esta bien.wav
1402760531 15074012 02.-Al enredar.wav
3056644164 35475260 03.-El rey del pinball.wav
238495695 3448076 04.-Encontre un doctor.wav
412383712 43639052 05.-Hacia el espejo.wav
409071109 15431516 06.-Tommy,puedes oirme.wav
2010106045 18249212 07.-Romper el espejo.wav
505001635 32069564 08.-Sensacion.wav
756543458 3739724 09.-Vaya milagro!.wav
828361488 50358716 10.-Sally Simpson.wav
170658984 29068412 11.-Libre soy.wav
1275224974 55523708 12.-Ven a esta casa.wav
1335097336 10856876 13.-El parque de Tommy.wav
1063458885 74925356 14.-No lo aceptaremos.wav
auCDtect: CD records authenticity detector, version 0.8.2
Copyright (c) 2004 Oleg Berngardt. All rights reserved.
Copyright (c) 2004 Alexander Djourik. All rights reserved.
------------------------------------------------------------
Processing file: [01.-Y tu crees que esta bien.wav]
------------------------------------------------------------
This track looks like CDDA with probability 100%
------------------------------------------------------------
Processing file: [02.-Al enredar.wav]
------------------------------------------------------------
This track looks like CDDA with probability 100%
------------------------------------------------------------
Processing file: [03.-El rey del pinball.wav]
------------------------------------------------------------
This track looks like CDDA with probability 99%
------------------------------------------------------------
Processing file: [04.-Encontre un doctor.wav]
------------------------------------------------------------
This track looks like CDDA with probability 100%
------------------------------------------------------------
Processing file: [05.-Hacia el espejo.wav]
------------------------------------------------------------
This track looks like CDDA with probability 100%
------------------------------------------------------------
Processing file: [06.-Tommy,puedes oirme.wav]
------------------------------------------------------------
This track looks like CDDA with probability 100%
------------------------------------------------------------
Processing file: [07.-Romper el espejo.wav]
------------------------------------------------------------
This track looks like CDDA with probability 100%
------------------------------------------------------------
Processing file: [08.-Sensacion.wav]
------------------------------------------------------------
This track looks like CDDA with probability 100%
------------------------------------------------------------
Processing file: [09.-Vaya milagro!.wav]
------------------------------------------------------------
This track looks like CDDA with probability 100%
------------------------------------------------------------
Processing file: [10.-Sally Simpson.wav]
------------------------------------------------------------
This track looks like CDDA with probability 100%
------------------------------------------------------------
Processing file: [11.-Libre soy.wav]
------------------------------------------------------------
This track looks like CDDA with probability 100%
------------------------------------------------------------
Processing file: [12.-Ven a esta casa.wav]
------------------------------------------------------------
This track looks like CDDA with probability 100%
------------------------------------------------------------
Processing file: [13.-El parque de Tommy.wav]
------------------------------------------------------------
This track looks like CDDA with probability 100%
------------------------------------------------------------
Processing file: [14.-No lo aceptaremos.wav]
------------------------------------------------------------
This track looks like CDDA with probability 100%
------------------------------------------------------------
Final Conclusion:
------------------------------------------------------------
These tracks looks like CDDA with probability 100%
Доп. информация: WEB OFICIAL
Barón Rojo (Красный Барон) - испанская хэви-метал группа, образованная в 1980 году и названа в честь немецкого авиатора Манфред фон Рихтгофен, известный как Красный Барон.
В 2012 году журнал Rolling Stone назвал Barón Rojo одной из 18 лучших рок-группа Spanish.
[cybertorrent.ru].t41487.torrent 
Торрент: Зарегистрирован [ 2018-03-19 15:15 ] · B1E8487FFADDAA4D612A2D3F9CB67DDB8389A4E5

Скачать .torrent

Скачать

59 KB

Статус: проверено
Скачан: 0 раз
Размер: 8,02 GB
Профиль [ЛС]
Показать сообщения:    

Текущее время: 22-Апр 23:53

Часовой пояс: UTC ± 0



Вы не можете начинать темы
Вы не можете отвечать на сообщения
Вы не можете редактировать свои сообщения
Вы не можете удалять свои сообщения
Вы не можете голосовать в опросах
Вы не можете прикреплять файлы к сообщениям
Вы можете скачивать файлы