Статистика раздачи
Размер:  2,6 GB   |    Зарегистрирован:  1 месяц 4 дня   |    Скачан:  0 раз

Полного источника не было: Никогда

 
   
 
 

chik ®

Пол:
Не указан
Стаж:
2 месяца 6 дней
Сообщений:
148

Anna Calvi



Жанр: Alternative Rock
Продолжительность: 00:30:26
Год выпуска: 2011
Качество: HDTV 720p
Контейнер: TS
Видео кодек: MPEG4
Аудио кодек: AC3
Видео: MPEG4 Video (H264) 1280x720 50fps 11.2Mbps
Аудио: Dolby AC3 48000Hz stereo 448kbps

Треклист

01. Interview 1
02. Desire
03. Interview 2
04. Suzanne And I
05. Interview 3
06. Love Won't Be Leaving
07. Interview 4
08. No More Words
09. Interview 5
10. Morning Light

Отчёт MediaInfo / BDInfo

General
ID : 1 (0x1)
Complete name : E:\Anna Calvi - Live from Abbey Road 2011.ts
Format : MPEG-TS
File size : 2.60 GiB
Duration : 30mn 26s
Overall bit rate mode : Variable
Overall bit rate : 12.2 Mbps
Video
ID : 6410 (0x190A)
Menu ID : 1 (0x1)
Format : AVC
Format/Info : Advanced Video Codec
Format profile : High@L4.0
Format settings, CABAC : Yes
Format settings, ReFrames : 6 frames
Codec ID : 27
Duration : 30mn 25s
Bit rate : 11.2 Mbps
Width : 1 280 pixels
Height : 720 pixels
Display aspect ratio : 16:9
Frame rate : 50.000 fps
Color space : YUV
Chroma subsampling : 4:2:0
Bit depth : 8 bits
Scan type : Progressive
Bits/(Pixel*Frame) : 0.242
Stream size : 2.37 GiB (91%)
Color primaries : BT.709
Transfer characteristics : BT.709
Matrix coefficients : BT.709
Audio
ID : 6422 (0x1916)
Menu ID : 1 (0x1)
Format : AC-3
Format/Info : Audio Coding 3
Mode extension : CM (complete main)
Format settings, Endianness : Big
Codec ID : 6
Duration : 30mn 25s
Bit rate mode : Constant
Bit rate : 448 Kbps
Channel(s) : 2 channels
Channel positions : Front: L R
Sampling rate : 48.0 KHz
Bit depth : 16 bits
Compression mode : Lossy
Stream size : 97.5 MiB (4%)
Language : German
[cybertorrent.ru].t41491.torrent 
Торрент: Зарегистрирован [ 2018-03-19 15:15 ] · DA9766D8C284EDB89EED75579728700DC6F1A65B

Скачать .torrent

Скачать

13 KB

Статус: проверено
Скачан: 0 раз
Размер: 2,6 GB
Профиль [ЛС]
Показать сообщения:    

Текущее время: 24-Апр 14:18

Часовой пояс: UTC ± 0



Вы не можете начинать темы
Вы не можете отвечать на сообщения
Вы не можете редактировать свои сообщения
Вы не можете удалять свои сообщения
Вы не можете голосовать в опросах
Вы не можете прикреплять файлы к сообщениям
Вы можете скачивать файлы