Статистика раздачи
Размер:  804 MB   |    Зарегистрирован:  8 месяцев 27 дней   |    Скачан:  0 раз

Полного источника не было: Никогда

Личеров:  1  [  0 KB/s  ]  
 
   
 
 

DR_KTO ®

Пол:
Не указан
Стаж:
10 месяцев
Сообщений:
105

Давайте рисовать! (Новогодние выпуски - 9 вып.)
Дата/Год выпуска: 2013
Страна: Россия
Жанр: Детская телепередача
Продолжительность: 9 х 6 мин.
Перевод: Не требуется
Русские субтитры: нет
Телеканал: Карусель
Описание: Добрая фея Фиалка и ее помощник Каляка-Маляка научат рисовать всех-всех-всех, главное — желание!
Присоединяйтесь!
Доп. информация: Запись с канала "Карусель". Нумерация выпусков - с него же.
Сэмпл: http://multi-up.com/1022877
Релиз:
Ссылка на предыдущие и альтернативные раздачи:
http://cybertorrent.ru/tracker.php?nm=%D0%94%D0%B0%D0%B2%D0%B0%D0%B9%D1%82%D0...0%B0%D1%82%D1%8C
качество: SATRip
формат: AVI
Видео: 704x560 (4:3), 25 fps, XviD build 64 ~1788 kbps avg, 0.18 bit/pixel
Аудио: 48 kHz, MPEG Layer 3, 2 ch, ~128.00 kbps avg

Список выпусков/серий

1. Новогоднее приглашение.avi
2. Снеговик.avi
3. Снежинка.avi
4. Подарочная коробка.avi
5. Медали.avi
6. Карнавальная маска.avi
7. Клюшка.avi
8. Волшебный фонарик.avi
9. Волшебные ноты.avi

MediaInfo

Полное имя : H:\01 РАЗДАЧИ ШОУ\Давайте рисовать Н-Год\Давайте рисовать Н-Год\1. Новогоднее приглашение.avi
Формат : AVI
Формат/Информация : Audio Video Interleave
Размер файла : 97,3 Мбайт
Продолжительность : 7 м. 2 с.
Общий поток : 1930 Кбит/сек
Программа кодирования : Lavf54.63.100
Видео
Идентификатор : 0
Формат : MPEG-4 Visual
Профиль формата : Simple@L3
Параметр BVOP формата : Нет
Параметр QPel формата : Нет
Параметр GMC формата : Без точки перехода
Параметр матрицы формата : Default (H.263)
Идентификатор кодека : XVID
Идентификатор кодека/Подсказка : XviD
Продолжительность : 7 м. 2 с.
Битрейт : 1790 Кбит/сек
Ширина : 704 пикселя
Высота : 560 пикселей
Соотношение сторон : 4:3
Частота кадров : 25,000 кадров/сек
Цветовое пространство : YUV
Субдискретизация насыщенности : 4:2:0
Битовая глубина : 8 бит
Тип развёртки : Прогрессивная
Метод сжатия : С потерями
Бит/(Пиксели*Кадры) : 0.182
Размер потока : 90,2 Мбайт (93%)
Библиотека кодирования : XviD 64
Аудио
Идентификатор : 1
Формат : MPEG Audio
Версия формата : Version 1
Профиль формата : Layer 3
Идентификатор кодека : 55
Идентификатор кодека/Подсказка : MP3
Продолжительность : 7 м. 2 с.
Вид битрейта : Постоянный
Битрейт : 128 Кбит/сек
Каналы : 2 канала
Частота : 48,0 КГц
Метод сжатия : С потерями
Размер потока : 6,45 Мбайт (7%)
Выравнивание : Соединение по промежуткам
Продолжительность промежутка : 24 мс. (0,60 видеокадр)
Время предзагрузки промежутка : 24 мс.

Скриншоты

[cybertorrent.ru].t41496.torrent 
Торрент: Зарегистрирован [ 2018-03-19 15:15 ] · 0FDF6089FFEFB2A85FBDB965CD8C9054422F6D83

Скачать .torrent

Скачать

17 KB

Статус: проверено
Скачан: 0 раз
Размер: 804 MB
Профиль [ЛС]
Показать сообщения:    

Текущее время: 16-Дек 09:03

Часовой пояс: UTC ± 0



Вы не можете начинать темы
Вы не можете отвечать на сообщения
Вы не можете редактировать свои сообщения
Вы не можете удалять свои сообщения
Вы не можете голосовать в опросах
Вы не можете прикреплять файлы к сообщениям
Вы можете скачивать файлы
Torrents24.ru открытый BitTorrent Torrents24.pl открытый BitTorrent CyberTorrent.ru открытый BitTorrent BtList.ru рейтинг BitTorrent трекеров Яндекс.Метрика