Статистика раздачи
Размер:  1,37 GB   |    Зарегистрирован:  3 месяца 11 дней   |    Скачан:  0 раз

Полного источника не было: Никогда

Личеров:  3  [  0 KB/s  ]  
 
   
 
 

lopster ®

Пол:
Не указан
Стаж:
3 месяца 11 дней
Сообщений:
612

Кофе с лимоном / Coffee with Lemon / קפה עם לימון
Страна: Израиль, Россия
Жанр: драма
Год выпуска: 1994
Продолжительность: 01:30:23
Режиссёр: Леонид Горовец
В ролях: Александр Абдулов
Татьяна Васильева
Бруриа Албек
Валерий Гурьев
Мария Белкина
Ефим Абрамов
Ширли Деше
Цахи Ной
Валентин Никулин
Александр Збруев
Описание: Известный советский актер Валерий Островский решает эмигрировать с семьей в Израиль, где ему обещают хорошую работу и большие гонорары. Но действительность оказывается гораздо менее привлекательной. Проблемы с языком и тоска по Родине приводят к тому, что Валерий возвращается обратно. Но здесь уже другая жизнь — неспокойная и даже со стрельбой. Случайная пуля во время событий в Москве 93-го решает его проблемы.
Доп. информация: За наводку спасибо maximus_lt
Сэмпл: https://yadi.sk/i/dPyFUwm_3NxgAC
Качество видео: VHSRip
Формат видео: AVI
Видео: 640x480 (1.33:1), 25 fps, XviD build 50 ~1963 kbps avg, 0.26 bit/pixel
Аудио: 44.1 kHz, AC3 Dolby Digital, 2/0 (L,R) ch, ~192 kbps

MediaInfo

Кофе с лимоном 1994.XviD.VHSRip.avi
Format : AVI
Format/Info : Audio Video Interleave
File size : 1.37 GiB
Duration : 1 h 30 min
Overall bit rate : 2 165 kb/s
Writing application : VirtualDubMod 1.5.10.3 | www.virtualdub-fr.org || (build 2550/release)
Writing library : VirtualDubMod build 2550/release
Video
ID : 0
Format : MPEG-4 Visual
Format profile : Advanced Simple@L5
Format settings, BVOP : 2
Format settings, QPel : No
Format settings, GMC : No warppoints
Format settings, Matrix : Default (H.263)
Codec ID : XVID
Codec ID/Hint : XviD
Duration : 1 h 30 min
Bit rate : 1 963 kb/s
Width : 640 pixels
Height : 480 pixels
Display aspect ratio : 4:3
Frame rate : 25.000 FPS
Color space : YUV
Chroma subsampling : 4:2:0
Bit depth : 8 bits
Scan type : Progressive
Compression mode : Lossy
Bits/(Pixel*Frame) : 0.256
Stream size : 1.24 GiB (91%)
Writing library : XviD 1.2.1 (UTC 2008-12-04)
Audio
ID : 1
Format : AC-3
Format/Info : Audio Coding 3
Format settings, Endianness : Big
Codec ID : 2000
Duration : 1 h 30 min
Bit rate mode : Constant
Bit rate : 192 kb/s
Channel(s) : 2 channels
Channel positions : Front: L R
Sampling rate : 44.1 kHz
Frame rate : 28.711 FPS (1536 spf)
Bit depth : 16 bits
Compression mode : Lossy
Stream size : 124 MiB (9%)
Alignment : Split accross interleaves
Interleave, duration : 40 ms (1.00 video frame)
Interleave, preload duratio : 500 ms
Service kind : Complete Main

Скриншоты


[cybertorrent.ru].t415.torrent 
Торрент: Зарегистрирован [ 2018-02-15 15:48 ] · 83C2D0ECC991BA92B24100A4671A067727669C45

Скачать .torrent

Скачать

14 KB

Статус: проверено
Скачан: 0 раз
Размер: 1,37 GB
Профиль [ЛС]
Показать сообщения:    

Текущее время: 27-Май 01:38

Часовой пояс: UTC ± 0



Вы не можете начинать темы
Вы не можете отвечать на сообщения
Вы не можете редактировать свои сообщения
Вы не можете удалять свои сообщения
Вы не можете голосовать в опросах
Вы не можете прикреплять файлы к сообщениям
Вы можете скачивать файлы