Статистика раздачи
Размер:  1,74 GB   |    Зарегистрирован:  1 месяц 4 дня   |    Скачан:  0 раз

Полного источника не было: Никогда

 
   
 
 

chik ®

Пол:
Не указан
Стаж:
2 месяца 5 дней
Сообщений:
148

The Temperance Movement. Album de la semain
Жанр: Blues rock/Hard rock
Продолжительность: 00:32:55
Год выпуска: 2016
Описание: Выступление британского blues rock бэнда The Temperance Movement в рамках музыкального шоу Album de la semaine 2016 jan06
Доп. информация: Собственная запись со спутникового канала CANAL+ 2016 jan18-22
Треклист: Three Bulleits
White Bear
Get Yourself Free
Magnify
Battle Lines
Качество: HDTV 1080i
Контейнер: TS
Видео кодек: H.264
Аудио кодек: AC3
Видео: Mpeg4 AVC, 1920x1080, 7005 kbps, 25 fps
Аудио: AC3, 192 kbps, 48 kHz, stereo
Аудио 2: AC3, 192 kbps, 48 kHz, stereo
Аудио 3: AC3, 192 kbps, 48 kHz, stereo

Отчёт MediaInfo / BDInfo

General
ID : 1 (0x1)
Complete name : E:\Downloads\The Temperance Movement. Album de la semaine 2016.ts
Format : MPEG-TS
File size : 1.74 GiB
Duration : 32mn 55s
Overall bit rate mode : Variable
Overall bit rate : 7 575 Kbps
Video
ID : 210 (0xD2)
Menu ID : 8802 (0x2262)
Format : AVC
Format/Info : Advanced Video Codec
Format profile : High@L4
Format settings, CABAC : Yes
Format settings, ReFrames : 4 frames
Codec ID : 27
Duration : 32mn 55s
Bit rate : 7 006 Kbps
Width : 1 920 pixels
Height : 1 080 pixels
Display aspect ratio : 16:9
Frame rate : 25.000 fps
Standard : Component
Color space : YUV
Chroma subsampling : 4:2:0
Bit depth : 8 bits
Scan type : MBAFF
Scan order : Top Field First
Bits/(Pixel*Frame) : 0.135
Stream size : 1.61 GiB (92%)
Color range : Limited
Color primaries : BT.709
Transfer characteristics : BT.709
Matrix coefficients : BT.709
Audio
ID : 121 (0x79)
Menu ID : 8802 (0x2262)
Format : AC-3
Format/Info : Audio Coding 3
Mode extension : CM (complete main)
Format settings, Endianness : Big
Codec ID : 6
Duration : 32mn 55s
Bit rate mode : Constant
Bit rate : 192 Kbps
Channel(s) : 2 channels
Channel positions : Front: L R
Sampling rate : 48.0 KHz
Compression mode : Lossy
Stream size : 45.2 MiB (3%)
Language : French
Text
ID : 123 (0x7B)
Menu ID : 8802 (0x2262)
Format : DVB Subtitle
Codec ID : 6
Delay relative to video : 760ms
Language : French

Скриншоты

[cybertorrent.ru].t41512.torrent 
Торрент: Зарегистрирован [ 2018-03-19 15:15 ] · 9E09EDC5B70E82508A962F226FA374CA4D6DD7A9

Скачать .torrent

Скачать

18 KB

Статус: проверено
Скачан: 0 раз
Размер: 1,74 GB
Профиль [ЛС]
Показать сообщения:    

Текущее время: 24-Апр 04:47

Часовой пояс: UTC ± 0



Вы не можете начинать темы
Вы не можете отвечать на сообщения
Вы не можете редактировать свои сообщения
Вы не можете удалять свои сообщения
Вы не можете голосовать в опросах
Вы не можете прикреплять файлы к сообщениям
Вы можете скачивать файлы