Статистика раздачи
Размер:  696 MB   |    Зарегистрирован:  1 месяц 3 дня   |    Скачан:  0 раз

Полного источника не было: Никогда

 
   
 
 

android ®

Пол:
Не указан
Стаж:
2 месяца 7 дней
Сообщений:
221

Michael Bolton 2CD
Жанр: Pop
Носитель: CD
Страна-производитель диска (релиза): USA
Год издания: 1999 - 2000
Страна исполнителя (группы): USA
Аудиокодек: Flac
Тип рипа: image+.cue
Битрейт аудио: lossless
Продолжительность: 01:38:50
Источник (релизер): Собственные Диски
Наличие сканов в содержимом раздачи: да
Треклист:

Michael Bolotin / Every Day Of My Life - 1999 (01:17:34)

Michael Bolotin-1975
01. Your Love (03:25)
02. Give Me A Reason (03:56)
03. Dream While You Can (04:28)
04. Tell Me How You Feel (03:27)
05. It's All Comin' Back To You (03:44)
06. It's Just A Feelin' (03:37)
07. Everybody Needs A Reason (03:58)
08. You're No Good (03:53)
09. Time Is On My Side (05:08)
10. Take Me As I Am (03:45)
11. Lost In The City (03:42)
Every Day Of My Life-1976
12. Rocky Mountain Way (04:18)
13. Every Day Of My Life (03:26)
14. You Mean More To Me (03:31)
15. Singin' The Blues (03:39)
16. Dancing In The Street (03:50)
17. You Make Me Feel Like Lovin' You (04:20)
18. Common Thief (03:26)
19. These Eyes (03:32)
20. You've Got The Love I Need (03:22)

Лог создания рипа:

Exact Audio Copy V1.1 from 23. June 2015
Отчёт EAC об извлечении, выполненном 20. февраля 2016, 11:38
Michael Bolotin / Michael Bolotin / Every Day Of My Life
Дисковод: PIONEER DVD-RW DVR-221L Adapter: 1 ID: 1
Режим чтения : Достоверность
Использование точного потока : Да
Отключение кэша аудио : Да
Использование указателей C2 : Нет
Коррекция смещения при чтении : 6
Способность читать области Lead-in и Lead-out : Нет
Заполнение пропущенных сэмплов тишиной : Да
Удаление блоков с тишиной в начале и конце : Нет
При вычислениях CRC использовались нулевые сэмплы : Да
Интерфейс : Установленный внешний ASPI-интерфейс
Выходной формат : Пользовательский кодировщик
Выбранный битрейт : 128 kBit/s
Качество : Высокий
Добавление ID3-тега : Нет
Утилита сжатия : C:\Program Files\Exact Audio Copy\FLAC\FLAC.EXE
Дополнительные параметры : -V -8 -T "Date=%year%" -T "Genre=%genre%" %source%
TOC извлечённого CD
Трек | Старт | Длительность | Начальный сектор | Конечный сектор
---------------------------------------------------------------------
1 | 0:00.00 | 3:29.37 | 0 | 15711
2 | 3:29.37 | 4:01.48 | 15712 | 33834
3 | 7:31.10 | 4:32.40 | 33835 | 54274
4 | 12:03.50 | 3:31.07 | 54275 | 70106
5 | 15:34.57 | 3:47.35 | 70107 | 87166
6 | 19:22.17 | 3:41.13 | 87167 | 103754
7 | 23:03.30 | 4:02.00 | 103755 | 121904
8 | 27:05.30 | 3:56.07 | 121905 | 139611
9 | 31:01.37 | 5:12.28 | 139612 | 163039
10 | 36:13.65 | 3:49.37 | 163040 | 180251
11 | 40:03.27 | 3:45.20 | 180252 | 197146
12 | 43:48.47 | 4:20.73 | 197147 | 216719
13 | 48:09.45 | 3:28.25 | 216720 | 232344
14 | 51:37.70 | 3:34.20 | 232345 | 248414
15 | 55:12.15 | 3:41.60 | 248415 | 265049
16 | 58:54.00 | 3:53.57 | 265050 | 282581
17 | 62:47.57 | 4:21.70 | 282582 | 302226
18 | 67:09.52 | 3:28.03 | 302227 | 317829
19 | 70:37.55 | 3:34.30 | 317830 | 333909
20 | 74:12.10 | 3:22.37 | 333910 | 349096
Характеристики диапазона извлечения и сообщения об ошибках
Выбранный диапазон
Имя файла D:\Мусор\Michael Bolotin - Michael Bolotin , Every Day Of My Life.wav
Пиковый уровень 100.0 %
Скорость извлечения 8.2 X
Качество диапазона 99.9 %
CRC теста D419AFD7
CRC копии D419AFD7
Копирование... OK
Ошибок не произошло
AccurateRip: сводка
Трек 1 : извлечено точно (доверие 6) [4DC05232] (AR v2)
Трек 2 : извлечено точно (доверие 6) [4A2D5950] (AR v2)
Трек 3 : извлечено точно (доверие 6) [26E2BB8C] (AR v2)
Трек 4 : извлечено точно (доверие 6) [26153B66] (AR v2)
Трек 5 : извлечено точно (доверие 6) [ECFF68A9] (AR v2)
Трек 6 : извлечено точно (доверие 6) [A4D18565] (AR v2)
Трек 7 : извлечено точно (доверие 6) [2A329665] (AR v2)
Трек 8 : извлечено точно (доверие 6) [E53AF9FE] (AR v2)
Трек 9 : извлечено точно (доверие 6) [95D4E0ED] (AR v2)
Трек 10 : извлечено точно (доверие 6) [267F6692] (AR v2)
Трек 11 : извлечено точно (доверие 6) [51875352] (AR v2)
Трек 12 : извлечено точно (доверие 1) [E5957822] (AR v1)
Трек 13 : извлечено точно (доверие 1) [5C71905B] (AR v1)
Трек 14 : извлечено точно (доверие 1) [CB13F57A] (AR v1)
Трек 15 : извлечено точно (доверие 1) [4228436C] (AR v1)
Трек 16 : извлечено точно (доверие 1) [88A43A9C] (AR v1)
Трек 17 : извлечено точно (доверие 1) [F3D73D06] (AR v1)
Трек 18 : извлечено точно (доверие 1) [F5098110] (AR v1)
Трек 19 : извлечено точно (доверие 1) [86DB5994] (AR v1)
Трек 20 : извлечено точно (доверие 1) [0823D03A] (AR v1)
Все треки извлечены точно
Конец отчёта
==== Контрольная сумма отчёта 95BA0FD4DD8580AA622550E93B758CF89F158B3B99B9A37931190C9B851E7588 ====

Warm And Tender Love - 2000 (21:16)

01. Soul Provider (4:29)
02. That's What Love Is All About (3:58)
03. Missing You Now (4:35)
04. What You Won't Do For Love (4:21)
05. Warm And Tender Love (3:53)

Лог создания рипа:

Exact Audio Copy V1.1 from 23. June 2015
Отчёт EAC об извлечении, выполненном 15. марта 2018, 17:48
Michael Bolton / Warm And Tender Love
Дисковод: PIONEER DVD-RW DVR-221L Adapter: 1 ID: 0
Режим чтения : Достоверность
Использование точного потока : Да
Отключение кэша аудио : Да
Использование указателей C2 : Нет
Коррекция смещения при чтении : 6
Способность читать области Lead-in и Lead-out : Нет
Заполнение пропущенных сэмплов тишиной : Да
Удаление блоков с тишиной в начале и конце : Нет
При вычислениях CRC использовались нулевые сэмплы : Да
Интерфейс : Встроенный Win32-интерфейс для Win NT/2000
Выходной формат : Пользовательский кодировщик
Выбранный битрейт : 128 kBit/s
Качество : Высокий
Добавление ID3-тега : Нет
Утилита сжатия : C:\Program Files (x86)\Exact Audio Copy\FLAC\FLAC.EXE
Дополнительные параметры : -6 -V -T "Date=%year%" -T "Genre=%genre%" %source%
TOC извлечённого CD
Трек | Старт | Длительность | Начальный сектор | Конечный сектор
---------------------------------------------------------------------
1 | 0:00.00 | 4:29.35 | 0 | 20209
2 | 4:29.35 | 3:58.47 | 20210 | 38106
3 | 8:28.07 | 4:35.38 | 38107 | 58769
4 | 13:03.45 | 4:21.42 | 58770 | 78386
5 | 17:25.12 | 3:53.13 | 78387 | 95874
Характеристики диапазона извлечения и сообщения об ошибках
Выбранный диапазон
Имя файла D:\Мусор\Michael Bolton - Warm And Tender Love - 2000.wav
Пиковый уровень 99.9 %
Скорость извлечения 6.5 X
Качество диапазона 100.0 %
CRC теста 266876F5
CRC копии 266876F5
Копирование... OK
Ошибок не произошло
AccurateRip: сводка
Трек 1 : извлечено точно (доверие 1) [05ED510C] (AR v1)
Трек 2 : извлечено точно (доверие 1) [B6C475F7] (AR v1)
Трек 3 : извлечено точно (доверие 1) [690EBEC4] (AR v1)
Трек 4 : извлечено точно (доверие 1) [DD278CB7] (AR v1)
Трек 5 : извлечено точно (доверие 1) [A2F7C64B] (AR v1)
Все треки извлечены точно
Конец отчёта
==== Контрольная сумма отчёта A9AD1F97D6CFDF9CA610762AD63817EA3CE526549EF9E54893D75D8DC00B45B8 ====
[cybertorrent.ru].t41514.torrent 
Торрент: Зарегистрирован [ 2018-03-19 15:15 ] · F01C71486F0C330C0C47622E8694C2D3969A40FF

Скачать .torrent

Скачать

17 KB

Статус: проверено
Скачан: 0 раз
Размер: 696 MB
Профиль [ЛС]
Показать сообщения:    

Текущее время: 22-Апр 16:04

Часовой пояс: UTC ± 0



Вы не можете начинать темы
Вы не можете отвечать на сообщения
Вы не можете редактировать свои сообщения
Вы не можете удалять свои сообщения
Вы не можете голосовать в опросах
Вы не можете прикреплять файлы к сообщениям
Вы можете скачивать файлы