Статистика раздачи
Размер:  5,53 GB   |    Зарегистрирован:  1 месяц 2 дня   |    Скачан:  0 раз

Полного источника не было: Никогда

 
   
 
 

chik ®

Пол:
Не указан
Стаж:
2 месяца 4 дня
Сообщений:
148


Mumford & Sons


Жанр: Folk Rock
Продолжительность: 01:32:07
Год выпуска: 2016
Качество: HDTV 1080i
Контейнер: TS
Видео кодек: H.264
Аудио кодек: AC3
Видео: MPEG4 Video (H264) 1920x1080 29.97fps 7 779 Kbps
Аудио: Dolby AC3 48000Hz 6ch 384kbps

Треклист

Babel
Little Lion Man
Below My Feet
Wilder Mind
Lover of the Light
Snake Eyes
Tompkins Square Park
Believe
Ghosts That We Knew
Awake My Soul
The Cave
Roll Away Your Stone
Ditmas
Dust Bowl Dance
Encore:
Hot Gates
I Will Wait
The Wolf

Отчёт MediaInfo / BDInfo

General
ID : 1 (0x1)
Complete name : M:\Mumford & Sons - Lollapalooza Brazil 2016.ts
Format : MPEG-TS
File size : 5.53 GiB
Duration : 1h 32mn
Overall bit rate mode : Variable
Overall bit rate : 8 592 Kbps
Video
ID : 320 (0x140)
Menu ID : 1 (0x1)
Format : AVC
Format/Info : Advanced Video Codec
Format profile : High@L4
Format settings, CABAC : Yes
Format settings, ReFrames : 4 frames
Format settings, GOP : M=4, N=32
Codec ID : 27
Duration : 1h 32mn
Bit rate : 7 779 Kbps
Width : 1 920 pixels
Height : 1 080 pixels
Display aspect ratio : 16:9
Frame rate : 29.970 fps
Color space : YUV
Chroma subsampling : 4:2:0
Bit depth : 8 bits
Scan type : MBAFF
Scan order : Top Field First
Bits/(Pixel*Frame) : 0.125
Stream size : 5.01 GiB (91%)
Audio
ID : 322 (0x142)
Menu ID : 1 (0x1)
Format : AC-3
Format/Info : Audio Coding 3
Mode extension : CM (complete main)
Format settings, Endianness : Big
Codec ID : 129
Duration : 1h 32mn
Bit rate mode : Constant
Bit rate : 384 Kbps
Channel(s) : 6 channels
Channel positions : Front: L C R, Side: L R, LFE
Sampling rate : 48.0 KHz
Compression mode : Lossy
Stream size : 253 MiB (4%)
Language : English
[cybertorrent.ru].t41515.torrent 
Торрент: Зарегистрирован [ 2018-03-19 15:15 ] · DA1874033BCC3FCF90C73228FD6F99FC690E6DEB

Скачать .torrent

Скачать

14 KB

Статус: проверено
Скачан: 0 раз
Размер: 5,53 GB
Профиль [ЛС]
Показать сообщения:    

Текущее время: 22-Апр 14:37

Часовой пояс: UTC ± 0



Вы не можете начинать темы
Вы не можете отвечать на сообщения
Вы не можете редактировать свои сообщения
Вы не можете удалять свои сообщения
Вы не можете голосовать в опросах
Вы не можете прикреплять файлы к сообщениям
Вы можете скачивать файлы