Статистика раздачи
Размер:  1,86 GB   |    Зарегистрирован:  1 месяц 4 дня   |    Скачан:  0 раз

Полного источника не было: Никогда

Личеров:  1  [  0 KB/s  ]  
 
   
 
 

Zima ®

Пол:
Не указан
Стаж:
2 месяца 9 дней
Сообщений:
293

Межконтинентальный кубок
Россия - США
Дата записи: 02.11.2016
Вид спорта: Пляжный футбол
Комментарий: Профессиональный
Язык комментариев: Русский-Описание: Пляжный футбол. Межконтинентальный кубок. Россия - США.-Автор рипа: sanchez2011
Качество: HDTVRip
Формат: MKV
Видео кодек: H.264
Аудио кодек: AC3
Видео: MPEG4 Video (H264) 1280x720 50fps 4000kbps
Аудио: Dolby AC3 48000Hz stereo 192kbps

Скриншоты

Составы

Продолжительность

01:02:15

Счет

Россия 9- 3 США

MediaInfo

General
Unique ID : 188679840103451605476445221139114450072 (0x8DF26A57601C6A649FE5AFFABC795C98)
Complete name : W:\раздачи\ПЛЯЖНЫЙ ФУТБОЛ. Межконтинентальный кубок. 2016.11.02. Россия - США. Rutracker.org.mkv
Format : Matroska
Format version : Version 2
File size : 1.86 GiB
Duration : 1h 2mn
Overall bit rate : 4 268 Kbps
Writing application : Lavf54.63.104
Writing library : Lavf54.63.104 / Lavf54.63.104
Video
ID : 1
Format : AVC
Format/Info : Advanced Video Codec
Format profile : High@L4.1
Format settings, CABAC : Yes
Format settings, ReFrames : 4 frames
Codec ID : V_MPEG4/ISO/AVC
Duration : 1h 2mn
Bit rate : 3 991 Kbps
Width : 1 280 pixels
Height : 720 pixels
Display aspect ratio : 16:9
Frame rate mode : Constant
Frame rate : 50.000 fps
Color space : YUV
Chroma subsampling : 4:2:0
Bit depth : 8 bits
Scan type : Progressive
Bits/(Pixel*Frame) : 0.087
Stream size : 1.74 GiB (94%)
Default : No
Forced : No
Color range : Limited
Color primaries : BT.709
Transfer characteristics : BT.709
Matrix coefficients : BT.709
Audio
ID : 2
Format : AC-3
Format/Info : Audio Coding 3
Mode extension : CM (complete main)
Format settings, Endianness : Big
Codec ID : A_AC3
Duration : 1h 2mn
Bit rate mode : Constant
Bit rate : 192 Kbps
Channel(s) : 2 channels
Channel positions : Front: L R
Sampling rate : 48.0 KHz
Frame rate : 31.250 fps (1536 spf)
Compression mode : Lossy
Stream size : 85.5 MiB (4%)
Default : Yes
Forced : No
[cybertorrent.ru].t41516.torrent 
Торрент: Зарегистрирован [ 2018-03-19 15:15 ] · 64A5BC0B783C7BE7CB311C20278285362CF6F9B6

Скачать .torrent

Скачать

19 KB

Статус: проверено
Скачан: 0 раз
Размер: 1,86 GB
Профиль [ЛС]
Показать сообщения:    

Текущее время: 24-Апр 14:19

Часовой пояс: UTC ± 0



Вы не можете начинать темы
Вы не можете отвечать на сообщения
Вы не можете редактировать свои сообщения
Вы не можете удалять свои сообщения
Вы не можете голосовать в опросах
Вы не можете прикреплять файлы к сообщениям
Вы можете скачивать файлы