Статистика раздачи
Размер:  856 MB   |    Зарегистрирован:  1 месяц 2 дня   |    Скачан:  0 раз

Полного источника не было: Никогда

Личеров:  1  [  0 KB/s  ]  
 
   
 
 

Влад ®

Пол:
Не указан
Стаж:
2 месяца 7 дней
Сообщений:
180

Жанр: Death/Thrash Metal
Носитель: CD
Страна-производитель диска (релиза): United States; Europe
Год издания: 1991; 2011; 2017
Издатель (лейбл): Nuclear Blast; Dark Descent Records; Metal Bastard Enterprises
Страна исполнителя (группы): United States
Аудиокодек: FLAC (*.flac)
Тип рипа: image+.cue
Битрейт аудио: lossless
Продолжительность: 3 CD
Источник (релизер): Свои рипы с оригинальных CD
Наличие сканов в содержимом раздачи: да

1991 - Fuckin' Death (NB 044 CD)

Трэклист:
01 - The Truth
02 - Mangled Dehumanization
03 - Re-entry and Destruction
04 - Pay to Die
05 - The Final Conflict
06 - Man Killed America/Embryonic Misconceptions
07 - Pervert
08 - Remorseless Poison

Доп. информация:

Tracks 1-4 recorded in 1985.
Track 8 is a bonus track on the CD version.
Tracks 3 and 4 are messed up in the tracklisting (track 3 is stated as track 4 and vice versa).
Recorded at Open Reel Productions, Lynwood, IL
℗ & © 1991

Отчёт EAC

Exact Audio Copy V1.3 from 2. September 2016
Отчёт EAC об извлечении, выполненном 19. января 2017, 16:06
Death Strike / Fuckin' Death
Дисковод: Optiarc DVD RW AD-7243S Adapter: 1 ID: 0
Режим чтения : Достоверность
Использование точного потока : Да
Отключение кэша аудио : Да
Использование указателей C2 : Нет
Коррекция смещения при чтении : 48
Способность читать области Lead-in и Lead-out : Нет
Заполнение пропущенных сэмплов тишиной : Да
Удаление блоков с тишиной в начале и конце : Нет
При вычислениях CRC использовались нулевые сэмплы : Да
Интерфейс : Встроенный Win32-интерфейс для Win NT/2000
Выходной формат : Пользовательский кодировщик
Выбранный битрейт : 768 kBit/s
Качество : Высокий
Добавление ID3-тега : Нет
Утилита сжатия : C:\Program Files (x86)\Exact Audio Copy\FLAC\FLAC.EXE
Дополнительные параметры : -6 -V -T "ARTIST=%artist%" -T "TITLE=%title%" -T "ALBUM=%albumtitle%" -T "DATE=%year%" -T "TRACKNUMBER=%tracknr%" -T "GENRE=%genre%" -T "COMMENT=%comment%" -T "BAND=%albuminterpret%" -T "ALBUMARTIST=%albuminterpret%" -T "COMPOSER=%composer%" %haslyrics%--tag-from-file=LYRICS="%lyricsfile%"%haslyrics% -T "DISCNUMBER=%cdnumber%" -T "TOTALDISCS=%totalcds%" -T "TOTALTRACKS=%numtracks%" %hascover%--picture="%coverfile%"%hascover% %source% -o %dest%
TOC извлечённого CD
Трек | Старт | Длительность | Начальный сектор | Конечный сектор
---------------------------------------------------------------------
1 | 0:00.00 | 3:21.65 | 0 | 15139
2 | 3:21.65 | 1:58.35 | 15140 | 24024
3 | 5:20.25 | 3:02.05 | 24025 | 37679
4 | 8:22.30 | 3:35.07 | 37680 | 53811
5 | 11:57.37 | 7:05.60 | 53812 | 85746
6 | 19:03.22 | 6:02.28 | 85747 | 112924
7 | 25:05.50 | 2:58.50 | 112925 | 126324
8 | 28:04.25 | 5:52.62 | 126325 | 152786
Характеристики диапазона извлечения и сообщения об ошибках
Выбранный диапазон
Имя файла D:\Документы\Музыка\Master\Paul Speckmann - Discography\Death Strike\1991 - Fuckin' Death (NB044CD)\Death Strike - Fuckin' Death.wav
Пиковый уровень 100.0 %
Скорость извлечения 3.4 X
Качество диапазона 99.9 %
CRC теста 57C6DD3D
CRC копии 57C6DD3D
Копирование... OK
Ошибок не произошло
AccurateRip: сводка
Трек 1 : извлечено точно (доверие 5) [78FE5237] (AR v2)
Трек 2 : извлечено точно (доверие 5) [6D2EC21E] (AR v2)
Трек 3 : извлечено точно (доверие 5) [7A47DB77] (AR v2)
Трек 4 : извлечено точно (доверие 5) [CD3DF633] (AR v2)
Трек 5 : извлечено точно (доверие 5) [1F391CD4] (AR v2)
Трек 6 : извлечено точно (доверие 4) [C6689F1A] (AR v2)
Трек 7 : извлечено точно (доверие 5) [4DD38470] (AR v2)
Трек 8 : извлечено точно (доверие 5) [B11B4D92] (AR v2)
Все треки извлечены точно
Конец отчёта
---- CUETools DB Plugin V2.1.6
[CTDB TOCID: TfuJzcztjHkbyij.aum2232CkKU-] found
Submit result: TfuJzcztjHkbyij.aum2232CkKU- has been confirmed
Track | CTDB Status
1 | (4/4) Accurately ripped
2 | (4/4) Accurately ripped
3 | (4/4) Accurately ripped
4 | (4/4) Accurately ripped
5 | (4/4) Accurately ripped
6 | (4/4) Accurately ripped
7 | (4/4) Accurately ripped
8 | (4/4) Accurately ripped
==== Контрольная сумма отчёта 85C8584C47276EA7863EB117B498490F239F0181B7887C79C5D99B5F5B8707A9 ====

Состав

Paul Speckmann - Vocals, Bass
Chris Mittleburn - Guitars
Kirk Miller - Guitars
John Leprich - Drums

2011 - Fuckin' Death (DDR034CD)

Трэклист:
01 - The Truth
02 - Mangled Dehumanization
03 - Re-entry and Destruction
04 - Pay to Die
05 - The Final Conflict
06 - Man Killed America/Embryonic Misconceptions
07 - Pervert
08 - Remorseless Poison
09 - Live for Free (Rehearsal) (Bonus Track)
10 - The Truth (Rehearsal) (Bonus Track)
11 - Pay to Die (Rehearsal) (Bonus Track)
12 - Master (Rehearsal) (Bonus Track)

Доп. информация:

Tracks 1-4 recorded in 1985.
Tracks 3 and 4 are messed up in the tracklisting (track 3 is stated as track 4 and vice versa).
The CD reissue contains the original eight tracks offered by the 1991 Nuclear Blast edition but adds four never-before-released rehearsal tracks to the mix. Additionally, the layout is comprised of an eight-page booklet featuring the intended original gold pantone color cover. Olivier "Zoltar" Badin from Terrorizer Magazine provides a foreword and the booklet contains liner notes from Paul Speckmann as well as new scans/photos.
Recorded at Open Reel Productions, Lynwood, IL

Лог создания рипа

Exact Audio Copy V1.3 from 2. September 2016
Отчёт EAC об извлечении, выполненном 16. января 2017, 22:05
Death Strike / Fuckin' Death
Дисковод: Optiarc DVD RW AD-7243S Adapter: 1 ID: 0
Режим чтения : Достоверность
Использование точного потока : Да
Отключение кэша аудио : Да
Использование указателей C2 : Нет
Коррекция смещения при чтении : 48
Способность читать области Lead-in и Lead-out : Нет
Заполнение пропущенных сэмплов тишиной : Да
Удаление блоков с тишиной в начале и конце : Нет
При вычислениях CRC использовались нулевые сэмплы : Да
Интерфейс : Встроенный Win32-интерфейс для Win NT/2000
Выходной формат : Пользовательский кодировщик
Выбранный битрейт : 768 kBit/s
Качество : Высокий
Добавление ID3-тега : Нет
Утилита сжатия : C:\Program Files (x86)\Exact Audio Copy\FLAC\FLAC.EXE
Дополнительные параметры : -6 -V -T "ARTIST=%artist%" -T "TITLE=%title%" -T "ALBUM=%albumtitle%" -T "DATE=%year%" -T "TRACKNUMBER=%tracknr%" -T "GENRE=%genre%" -T "COMMENT=%comment%" -T "BAND=%albuminterpret%" -T "ALBUMARTIST=%albuminterpret%" -T "COMPOSER=%composer%" %haslyrics%--tag-from-file=LYRICS="%lyricsfile%"%haslyrics% -T "DISCNUMBER=%cdnumber%" -T "TOTALDISCS=%totalcds%" -T "TOTALTRACKS=%numtracks%" %hascover%--picture="%coverfile%"%hascover% %source% -o %dest%
TOC извлечённого CD
Трек | Старт | Длительность | Начальный сектор | Конечный сектор
---------------------------------------------------------------------
1 | 0:00.00 | 3:21.65 | 0 | 15139
2 | 3:21.65 | 1:58.35 | 15140 | 24024
3 | 5:20.25 | 3:02.05 | 24025 | 37679
4 | 8:22.30 | 3:35.07 | 37680 | 53811
5 | 11:57.37 | 7:05.60 | 53812 | 85746
6 | 19:03.22 | 6:02.28 | 85747 | 112924
7 | 25:05.50 | 2:58.50 | 112925 | 126324
8 | 28:04.25 | 5:52.62 | 126325 | 152786
9 | 33:57.12 | 3:22.61 | 152787 | 167997
10 | 37:19.73 | 3:12.29 | 167998 | 182426
11 | 40:32.27 | 3:26.74 | 182427 | 197950
12 | 43:59.26 | 3:01.39 | 197951 | 211564
Характеристики диапазона извлечения и сообщения об ошибках
Выбранный диапазон
Имя файла D:\Документы\Музыка\Master\Paul Speckmann - Discography\Death Strike\2011 - Fuckin' Death (DDR034CD)\Death Strike - Fuckin' Death.wav
Пиковый уровень 100.0 %
Скорость извлечения 3.8 X
Качество диапазона 100.0 %
CRC теста 7C568FC6
CRC копии 7C568FC6
Копирование... OK
Ошибок не произошло
AccurateRip: сводка
Трек 1 : извлечено точно (доверие 5) [5C70D2E0] (AR v2)
Трек 2 : извлечено точно (доверие 5) [DE256386] (AR v2)
Трек 3 : извлечено точно (доверие 5) [841F7303] (AR v2)
Трек 4 : извлечено точно (доверие 5) [9160EA2A] (AR v2)
Трек 5 : извлечено точно (доверие 5) [4D160C6B] (AR v2)
Трек 6 : извлечено точно (доверие 5) [B41ED3A1] (AR v2)
Трек 7 : извлечено точно (доверие 5) [9AB3A048] (AR v2)
Трек 8 : извлечено точно (доверие 5) [3D935DAF] (AR v2)
Трек 9 : извлечено точно (доверие 5) [27C85C07] (AR v2)
Трек 10 : извлечено точно (доверие 5) [F6BA8A61] (AR v2)
Трек 11 : извлечено точно (доверие 5) [71C8698D] (AR v2)
Трек 12 : извлечено точно (доверие 5) [0CCB2F9B] (AR v2)
Все треки извлечены точно
Конец отчёта
---- CUETools DB Plugin V2.1.6
[CTDB TOCID: CZmC46JlU9cqRge.HSkKRtyqehc-] found
Submit result: CZmC46JlU9cqRge.HSkKRtyqehc- has been confirmed
Track | CTDB Status
1 | (9/9) Accurately ripped
2 | (9/9) Accurately ripped
3 | (9/9) Accurately ripped
4 | (9/9) Accurately ripped
5 | (9/9) Accurately ripped
6 | (9/9) Accurately ripped
7 | (9/9) Accurately ripped
8 | (9/9) Accurately ripped
9 | (9/9) Accurately ripped
10 | (9/9) Accurately ripped
11 | (9/9) Accurately ripped
12 | (9/9) Accurately ripped
==== Контрольная сумма отчёта 97339376B075966A62527EC61E6FFC1D675BD1949113A42D9EAA142B54BF80DE ====

Состав

Paul Speckmann - Vocals, Bass
Chris Mittleburn - Guitars
Kirk Miller - Guitars
John Leprich - Drums

2017 - Fuckin' Live (MR 028)

Трэклист:
01 - The Truth/Mangled Dehumanization
02 - Terrorizer/Pledge Of Allegiance
03 - The Final Conflict
04 - Instrumental/Unknown Soldier
05 - Re-Entry And Destruction
06 - Instrumental/Cut Thru The Filth
07 - Remorseless Poison
08 - Remorseless Poison
09 - Instrumental
10 - Pay To Die
11 - Children Of The Grave

Доп. информация:

TCD in jewelcase with 2-page booklet.
A release of Metal-Bastard-Enterprises.
Licensed from Paul Speckmann.
Recorded live in concert.
All rights reserved.

Лог создания рипа

Exact Audio Copy V1.1 from 23. June 2015
Отчёт EAC об извлечении, выполненном 16. марта 2018, 23:07
Death Strike / Fuckin' Live
Дисковод: Optiarc DVD RW AD-7243S Adapter: 1 ID: 2
Режим чтения : Достоверность
Использование точного потока : Да
Отключение кэша аудио : Да
Использование указателей C2 : Нет
Коррекция смещения при чтении : 48
Способность читать области Lead-in и Lead-out : Нет
Заполнение пропущенных сэмплов тишиной : Да
Удаление блоков с тишиной в начале и конце : Нет
При вычислениях CRC использовались нулевые сэмплы : Да
Интерфейс : Встроенный Win32-интерфейс для Win NT/2000
Выходной формат : Пользовательский кодировщик
Выбранный битрейт : 768 kBit/s
Качество : Высокий
Добавление ID3-тега : Нет
Утилита сжатия : C:\Program Files (x86)\Exact Audio Copy\FLAC\FLAC.EXE
Дополнительные параметры : -V -8 -T "Date=%year%" -T "Genre=%genre%" %source%
TOC извлечённого CD
Трек | Старт | Длительность | Начальный сектор | Конечный сектор
---------------------------------------------------------------------
1 | 0:00.00 | 6:02.00 | 0 | 27149
2 | 6:02.00 | 6:55.46 | 27150 | 58320
3 | 12:57.46 | 4:32.00 | 58321 | 78720
4 | 17:29.46 | 5:02.00 | 78721 | 101370
5 | 22:31.46 | 3:07.51 | 101371 | 115446
6 | 25:39.22 | 5:08.38 | 115447 | 138584
7 | 30:47.60 | 4:02.00 | 138585 | 156734
8 | 34:49.60 | 1:43.39 | 156735 | 164498
9 | 36:33.24 | 1:12.00 | 164499 | 169898
10 | 37:45.24 | 4:07.19 | 169899 | 188442
11 | 41:52.43 | 4:44.40 | 188443 | 209782
Характеристики диапазона извлечения и сообщения об ошибках
Выбранный диапазон
Имя файла G:\Документы\Музыка\Master\Paul Speckmann - Discography\Death Strike\2017 - Fuckin' Live (MR 028)\Death Strike - Fuckin' Live.wav
Пиковый уровень 24.9 %
Скорость извлечения 3.8 X
Качество диапазона 99.9 %
CRC теста 30C25216
CRC копии 30C25216
Копирование... OK
Ошибок не произошло
Конец отчёта
==== Контрольная сумма отчёта 2C5C4EB5A48B8C90F5594668286CFD885AC0B2C9985B71EAADD4700D47F6BB32 ====

Состав

Paul Speckmann - Vocals, Bass
Alex "93" Nejezchleba - Guitars
Zdeněk Pradlovský - Drums

Об исполнителе (группе)

http://www.metal-archives.com/bands/Death_Strike/4988
Также на сайте есть другие проекты, где участвовал Paul Speckmann:
Abomination
Cadaveric Poison
Funeral Bitch
Johansson & Speckmann
Martyr
Master
Solutions
Speckmann Project
[cybertorrent.ru].t41521.torrent 
Торрент: Зарегистрирован [ 2018-03-19 15:15 ] · CFB5F143A74C627CA46961BA8BBB73224A0CEC47

Скачать .torrent

Скачать

20 KB

Статус: проверено
Скачан: 0 раз
Размер: 856 MB
Профиль [ЛС]
Показать сообщения:    

Текущее время: 22-Апр 14:35

Часовой пояс: UTC ± 0



Вы не можете начинать темы
Вы не можете отвечать на сообщения
Вы не можете редактировать свои сообщения
Вы не можете удалять свои сообщения
Вы не можете голосовать в опросах
Вы не можете прикреплять файлы к сообщениям
Вы можете скачивать файлы