Статистика раздачи
Размер:  6,33 GB   |    Зарегистрирован:  3 месяца 30 дней   |    Скачан:  0 раз

Полного источника не было: Никогда

 
   
 
 

koljan ®

Пол:
Не указан
Стаж:
5 месяцев 3 дня
Сообщений:
295

Рапунцель: Новая история/ Tangled: The Series- Год выпуска: 2017
Страна: США, 9 Story Media Group, Disney Television Animation
Жанр: мультсериал, детский, семейный, приключения
Продолжительность: 00:21:00
Перевод: Профессиональный (дублированный) - Студия "Невафильм" по заказу "The Walt Disney Company"
Русские субтитры: нет
Режиссёр: Shane Prigmore / Шэйн Пригмор, Chris Sonnenburg / Крис Соннерберг-Описание: В центре сюжета - продолжение приключений Рапунцель и ее друзей. Прошло полгода с тех пор, как девушка вернулась домой и вновь обрела своих родителей. Совсем скоро должна состояться ее коронация. Пока все во дворце готовятся к пышному торжеству, Рапунцель нужно усвоить множество жизненных уроков и разобраться с новыми для нее обязанностями Принцессы. Помогать Рапунцель в этом нелёгком деле будут верные друзья: фрейлина Кассандра, возлюбленный Юджин, конь Максимус и хамелеон Паскаль ...

Описание серий

1 серия. What the Hair!?
2 серия. Rapunzel's Enemy
3 серия. Fitzherbert P.I
4 серия. Challenge of the Brave
5 серия. Cassandra v. Eugene
6 серия. The Return of Strongbow
7 серия. In Like Flynn
8 серия. Great Expotations
9 серия. Under Raps
10 серия. One Angry Princess
11 серия. Pascal's Story
12 серия. Big Brothers of Corona
14 серия. Max's Enemy
16 серия. Queen for a Day (полный эпизод)
17 серия. Painter's Block
18 серия. Not in the Mood
Доп. информация:

Семпл: https://yadi.sk/d/kZZORA543MzXXz
-
Релиз группы: -Качество видео: DVB
Формат видео: MPEG-TS
Видео: MPEG4 Video (H264), 720x576@785x576 (4:3), анаморф, 25 fps, 2300 kbps
Аудио: MPEG Audio, 2 сh, 48 kHz, 192 kbps-Все раздачи мультсериала-

MediaInfo

G:\Рапунцель. Новая история. (2017)_DVB by SLuMeP\01с. What the Hair.ts
General #1
ID : 1 (0x1)
Complete name : G:\Рапунцель. Новая история. (2017)_DVB by SLuMeP\01с. What the Hair.ts
Format : MPEG-TS
File size : 404 MiB
Duration : 21mn 36s
Overall bit rate mode : Variable
Overall bit rate : 2 617 Kbps
Video #2694
ID : 2694 (0xA86)
Menu ID : 694 (0x2B6)
Format : AVC
Format/Info : Advanced Video Codec
Format profile : Main@L3.0
Format settings, CABAC : Yes
Format settings, ReFrames : 4 frames
Codec ID : 27
Duration : 21mn 36s
Bit rate : 2 294 Kbps
Width : 720 pixels
Height : 576 pixels
Display aspect ratio : 4:3
Frame rate : 25.000 fps
Standard : PAL
Color space : YUV
Chroma subsampling : 4:2:0
Bit depth : 8 bits
Scan type : MBAFF
Scan order : Top Field First
Bits/(Pixel*Frame) : 0.221
Stream size : 354 MiB (88%)
Color primaries : BT.601 PAL
Transfer characteristics : BT.470 System B, BT.470 System G
Matrix coefficients : BT.601
Audio #3694
ID : 3694 (0xE6E)
Menu ID : 694 (0x2B6)
Format : MPEG Audio
Format version : Version 1
Format profile : Layer 2
Codec ID : 3
Duration : 21mn 36s
Bit rate mode : Constant
Bit rate : 192 Kbps
Channel(s) : 2 channels
Sampling rate : 48.0 KHz
Compression mode : Lossy
Stream size : 29.7 MiB (7%)
Language : Russian

Скриншоты



Внимание! Раздача ведётся путём добавления новых серий

Чтобы начать докачку новой серии, пользователям необходимо сделать следующее:
(1) остановить скачивание,
(2) удалить старый торрент у себя из клиента (старые серии удалять не надо),
(3) скачать новый торрент и запустить его у себя в клиенте вместо старого, при этом указать клиенту путь в старую папку куда и должно происходить скачивание новых серий.
Ваш клиент при этом должен произвести хеширование (проверку) старой папки (если не производит сам - помогите ему сделать это), и будет докачивать только те серии которых у вас ещё нет. Старые серии при этом не удаляются, а продолжают раздаваться!
Eсли вы уже удалили старые серии, то предотвратить повторную закачку старых серий можно, отжав галочку в соответсвующих местах при запуске нового торрента. По возможности, желательно не удалять старые серии как можно дольше чтобы релизёр не столько продолжал раздавать старые серии, а смог сконцентрироваться на новых.
Добавлена 14, 18 серия
PS. перекачайте торрент-файл !
[cybertorrent.ru].t41535.torrent 
Торрент: Зарегистрирован [ 2018-03-19 15:15 ] · 6EB67F9F046D988FA2B8E708D9293F2C85AB250A

Скачать .torrent

Скачать

33 KB

Статус: проверено
Скачан: 0 раз
Размер: 6,33 GB
Профиль [ЛС]
Показать сообщения:    

Текущее время: 19-Июл 09:38

Часовой пояс: UTC ± 0



Вы не можете начинать темы
Вы не можете отвечать на сообщения
Вы не можете редактировать свои сообщения
Вы не можете удалять свои сообщения
Вы не можете голосовать в опросах
Вы не можете прикреплять файлы к сообщениям
Вы можете скачивать файлы