Статистика раздачи
Размер:  424 MB   |    Зарегистрирован:  1 месяц 2 дня   |    Скачан:  0 раз

Полного источника не было: Никогда

 
   
 
 

вояка ®

Пол:
Не указан
Стаж:
2 месяца 6 дней
Сообщений:
269

David Garrett / Rock Revolution
Жанр: Classical, Crossover
Носитель: CD
Страна-производитель диска (релиза): EU
Год издания: 2017
Особенность издания: CD/DVD Deluxe Edition, Digipak
Издатель (лейбл): Decca
Номер по каталогу: 00602557764413
Страна исполнителя (группы): Germany
Аудиокодек: FLAC (*.flac)
Тип рипа: image+.cue
Битрейт аудио: lossless
Продолжительность: 01:04:54
Источник (релизер): haRD
Наличие сканов в содержимом раздачи: full

01. In the Air Tonight (3:55)
02. Born In the USA (3:30)
03. Stairway To Heaven (3:14)
04. Superstition (2:45)
05. Bitter Sweet Symphony (3:41)
06. Killing In the Name (3:16)
07. Purple Rain (4:12)
08. Eye of the Tiger (2:52)
09. Fix You (4:21)
10. Concerto No. 1 (In B Flat Minor, Op. 23 arr. For Violin and Band) (3:14)
11. The Well Dressed Guitar (3:28)
12. You're the Inspiration (3:38)
13. Duel Guitar Vs. Violin (2:08)
14. Bohemian Rhapsody (4:55)
15. Earth Song (4:05)
16. Baroque Reinvention (Prelude and Fugue In C Minor BWV871 Arr. For Violin and ... (3:49)
17. One Moment In Time (4:22)
18. Nah Neh Nah (3:27)

Лог создания рипа

Exact Audio Copy V1.1 from 23. June 2015
EAC extraction logfile from 19. September 2017, 0:07
David Garrett / Rock Revolution (00602557764413)
Used drive : PIONEER BD-RW BDR-209D Adapter: 0 ID: 5
Read mode : Secure
Utilize accurate stream : Yes
Defeat audio cache : Yes
Make use of C2 pointers : No
Read offset correction : 667
Overread into Lead-In and Lead-Out : No
Fill up missing offset samples with silence : Yes
Delete leading and trailing silent blocks : No
Null samples used in CRC calculations : Yes
Used interface : Installed external ASPI interface
Used output format : User Defined Encoder
Selected bitrate : 768 kBit/s
Quality : High
Add ID3 tag : No
Command line compressor : C:\Program Files (x86)\Exact Audio Copy\FLAC\FLAC.EXE
Additional command line options : -6 -V -T "ARTIST=%artist%" -T "TITLE=%title%" -T "ALBUM=%albumtitle%" -T "DATE=%year%" -T "TRACKNUMBER=%tracknr%" -T "GENRE=%genre%" -T "COMMENT=%comment%" -T "BAND=%albuminterpret%" -T "ALBUMARTIST=%albuminterpret%" -T "COMPOSER=%composer%" %haslyrics%--tag-from-file=LYRICS="%lyricsfile%"%haslyrics% -T "DISCNUMBER=%cdnumber%" -T "TOTALDISCS=%totalcds%" -T "TOTALTRACKS=%numtracks%" %hascover%--picture="%coverfile%"%hascover% %source% -o %dest%
TOC of the extracted CD
Track | Start | Length | Start sector | End sector
---------------------------------------------------------
1 | 0:00.00 | 3:55.24 | 0 | 17648
2 | 3:55.24 | 3:29.52 | 17649 | 33375
3 | 7:25.01 | 3:14.29 | 33376 | 47954
4 | 10:39.30 | 2:45.05 | 47955 | 60334
5 | 13:24.35 | 3:41.01 | 60335 | 76910
6 | 17:05.36 | 3:15.72 | 76911 | 91607
7 | 20:21.33 | 4:11.49 | 91608 | 110481
8 | 24:33.07 | 2:52.11 | 110482 | 123392
9 | 27:25.18 | 4:21.31 | 123393 | 142998
10 | 31:46.49 | 3:13.69 | 142999 | 157542
11 | 35:00.43 | 3:27.51 | 157543 | 173118
12 | 38:28.19 | 3:37.69 | 173119 | 189462
13 | 42:06.13 | 2:08.12 | 189463 | 199074
14 | 44:14.25 | 4:55.36 | 199075 | 221235
15 | 49:09.61 | 4:05.33 | 221236 | 239643
16 | 53:15.19 | 3:49.13 | 239644 | 256831
17 | 57:04.32 | 4:21.70 | 256832 | 276476
18 | 61:26.27 | 3:27.21 | 276477 | 292022
Range status and errors
Selected range
Filename E:\MUSIC\David Garrett - Rock Revolution (00602557764413).wav
Peak level 94.3 %
Extraction speed 8.2 X
Range quality 100.0 %
Test CRC 1B7DCBAD
Copy CRC 1B7DCBAD
Copy OK
No errors occurred
AccurateRip summary
Track 1 not present in database
Track 2 not present in database
Track 3 not present in database
Track 4 not present in database
Track 5 not present in database
Track 6 not present in database
Track 7 not present in database
Track 8 not present in database
Track 9 not present in database
Track 10 not present in database
Track 11 not present in database
Track 12 not present in database
Track 13 not present in database
Track 14 not present in database
Track 15 not present in database
Track 16 not present in database
Track 17 not present in database
Track 18 not present in database
None of the tracks are present in the AccurateRip database
End of status report
==== Log checksum 21E154CB1407E508575C3F7FED98F4285BA4D6FF557A8533EA62ABECCD851049 ====

Содержание индексной карты (.CUE)

REM GENRE Contemporary, Pop Rock, Symphonic Rock
REM DATE 2017
REM DISCID F90F3512
REM COMMENT ExactAudioCopy v1.1
PERFORMER "David Garrett"
TITLE "Rock Revolution (00602557764413)"
FILE "David Garrett - Rock Revolution (00602557764413).flac" WAVE
TRACK 01 AUDIO
TITLE "In the Air Tonight"
INDEX 01 00:00:00
TRACK 02 AUDIO
TITLE "Born In the USA"
INDEX 01 03:55:24
TRACK 03 AUDIO
TITLE "Stairway To Heaven"
INDEX 01 07:25:01
TRACK 04 AUDIO
TITLE "Superstition"
INDEX 00 10:38:53
INDEX 01 10:39:30
TRACK 05 AUDIO
TITLE "Bitter Sweet Symphony"
INDEX 00 13:22:74
INDEX 01 13:24:35
TRACK 06 AUDIO
TITLE "Killing In the Name"
INDEX 01 17:05:36
TRACK 07 AUDIO
TITLE "Purple Rain"
INDEX 01 20:21:33
TRACK 08 AUDIO
TITLE "Eye of the Tiger"
INDEX 01 24:33:07
TRACK 09 AUDIO
TITLE "Fix You"
INDEX 01 27:25:18
TRACK 10 AUDIO
TITLE "Concerto No. 1 (In B Flat Minor, Op. 23 arr. For Violin and Band)"
INDEX 00 31:45:66
INDEX 01 31:46:49
TRACK 11 AUDIO
TITLE "The Well Dressed Guitar"
INDEX 00 34:59:46
INDEX 01 35:00:43
TRACK 12 AUDIO
TITLE "You're the Inspiration"
INDEX 01 38:28:19
TRACK 13 AUDIO
TITLE "Duel Guitar Vs. Violin"
INDEX 00 42:04:63
INDEX 01 42:06:13
TRACK 14 AUDIO
TITLE "Bohemian Rhapsody"
INDEX 00 44:12:53
INDEX 01 44:14:25
TRACK 15 AUDIO
TITLE "Earth Song"
FLAGS DCP
INDEX 00 49:09:06
INDEX 01 49:09:61
TRACK 16 AUDIO
TITLE "Baroque Reinvention (Prelude and Fugue In C Minor BWV871 Arr. For Violin and ..."
INDEX 00 53:12:51
INDEX 01 53:15:19
TRACK 17 AUDIO
TITLE "One Moment In Time"
INDEX 01 57:04:32
TRACK 18 AUDIO
TITLE "Nah Neh Nah"
INDEX 01 61:26:27

Лог проверки качества

-----------------------
DON'T MODIFY THIS FILE
-----------------------
PERFORMER: auCDtect Task Manager, ver. 1.6.0 RC1 build 1.6.0.1
Copyright (c) 2008-2010 y-soft. All rights reserved
http://y-soft.org
ANALYZER: auCDtect: CD records authenticity detector, version 0.8.2
Copyright (c) 2004 Oleg Berngardt. All rights reserved.
Copyright (c) 2004 Alexander Djourik. All rights reserved.
FILE: David Garrett - Rock Revolution (00602557764413).flac
Size: 436247730 Hash: A00927A36126918116D9729B767FEC30 Accuracy: -m0
Conclusion: CDDA 100%
Signature: 0CD87015564B1B0D1662F7F3257FEC8E9644B945

DRM log

foobar2000 1.3.3 / Замер динамического диапазона (DR) 1.1.1
Дата отчёта: 2017-09-20 20:31:07
--------------------------------------------------------------------------------
Анализ: David Garrett / Rock Revolution (00602557764413)
--------------------------------------------------------------------------------
DR Пики RMS Продолжительность трека
--------------------------------------------------------------------------------
DR6 -0.51 дБ -9.26 дБ 3:55 01-In the Air Tonight
DR7 -0.50 дБ -9.60 дБ 3:30 02-Born In the USA
DR7 -0.52 дБ -9.59 дБ 3:14 03-Stairway To Heaven
DR8 -0.69 дБ -10.33 дБ 2:45 04-Superstition
DR8 -0.56 дБ -10.10 дБ 3:41 05-Bitter Sweet Symphony
DR6 -0.51 дБ -8.03 дБ 3:16 06-Killing In the Name
DR6 -0.52 дБ -9.11 дБ 4:12 07-Purple Rain
DR7 -0.51 дБ -8.42 дБ 2:52 08-Eye of the Tiger
DR7 -0.65 дБ -10.93 дБ 4:21 09-Fix You
DR7 -0.53 дБ -9.07 дБ 3:14 10-Concerto No. 1 (In B Flat Minor, Op. 23 arr. For Violin and Band)
DR7 -0.51 дБ -8.17 дБ 3:28 11-The Well Dressed Guitar
DR8 -0.79 дБ -10.56 дБ 3:38 12-You're the Inspiration
DR8 -0.55 дБ -11.26 дБ 2:08 13-Duel Guitar Vs. Violin
DR7 -0.50 дБ -9.96 дБ 4:55 14-Bohemian Rhapsody
DR7 -0.51 дБ -9.92 дБ 4:05 15-Earth Song
DR7 -0.52 дБ -9.17 дБ 3:49 16-Baroque Reinvention (Prelude and Fugue In C Minor BWV871 Arr. For Violin and ...
DR7 -0.54 дБ -9.42 дБ 4:22 17-One Moment In Time
DR8 -0.57 дБ -9.91 дБ 3:27 18-Nah Neh Nah
--------------------------------------------------------------------------------
Количество треков: 18
Реальные значения DR: DR7
Частота: 44100 Гц
Каналов: 2
Разрядность: 16
Битрейт: 896 кбит/с
Кодек: FLAC
================================================================================

Об исполнителе (группе)

Ему всё равно: стоять на сцене лондонского Роял Альберт Холл или же на улице в драных джинсах и простой футболке и радовать слух мимо проходящих людей звуками своей скрипки Cтрадивари (стоимость - миллион евро). Ведь он музыкант без "позы" и чувствует себя комфортно везде. Играет классику и рок. Всемирно известный, талантливый молодой скрипач-виртуоз - Дэвид Гарретт (David Garrett ) уже ребёнком стал знаменитым. В десятилетнем возрасте он дал свой первый концерт на сцене Гамбургской филармонии, а через два года выступал вместе с И. Менухин. В 17 лет Дэвид поступил в знаменитую Джульярдскую школу (Juilliard School of Music) - одно из крупнейших американских высших учебных заведений в области искусства. David Garrett, занесенный в книгу рекордов Гиннесса как «самый быстрый скрипач-виртуоз»(«Полет шмеля» Н. И.Римского-Корсакова исполняет на скрипке Страдивари за одну минуту), взял в руки любимый инструмент в 4 года. Музыке он учился у известных педагогов- Исака Штерна, Захара Брона, Итцака Перлмана и Дороти Делай. В 2007 году молодой музыкант выпустил альбом «Виртуозо», где записаны его интерпретации классических произведений, лирических мелодий из кинофильмов и музыки любимой рок-группы Metallica. Проект рискованный, но успешный! Новый альбом Дэвида вышел 15.09.2017
википедия
биография
[cybertorrent.ru].t41536.torrent 
Торрент: Зарегистрирован [ 2018-03-19 15:15 ] · 699285FDA690A3E33DA22B825236759659A9F467

Скачать .torrent

Скачать

18 KB

Статус: проверено
Скачан: 0 раз
Размер: 424 MB
Профиль [ЛС]
Показать сообщения:    

Текущее время: 22-Апр 14:34

Часовой пояс: UTC ± 0



Вы не можете начинать темы
Вы не можете отвечать на сообщения
Вы не можете редактировать свои сообщения
Вы не можете удалять свои сообщения
Вы не можете голосовать в опросах
Вы не можете прикреплять файлы к сообщениям
Вы можете скачивать файлы