Статистика раздачи
Размер:  363 MB   |    Зарегистрирован:  1 месяц 4 дня   |    Скачан:  0 раз

Полного источника не было: Никогда

Личеров:  2  [  0 KB/s  ]  
 
   
 
 

вояка ®

Пол:
Не указан
Стаж:
2 месяца 7 дней
Сообщений:
269

Moonlight Serenade / Great Orchestral Favorites
Жанр: Instrumental, Easy Listening
Носитель: CD
Страна-производитель диска (релиза): USA
Год издания: 2006
Издатель (лейбл): Reader's Digest
Номер по каталогу: SSFLM-00102; KCD1-7921
Аудиокодек: FLAC (*.flac)
Тип рипа: image+.cue
Битрейт аудио: lossless
Продолжительность: 49:58
Источник (релизер): Boris1
Наличие сканов в содержимом раздачи: да
Треклист:
01. The Romantic Strings - Moonlight Serenade (2:39)
02. Roger Williams - Canadian Sunset (2:43)
03. London Promenade Orchestra - Because (2:50)
04. Nelson Riddle - Can't Take My Eyes Off You (3:07)
05. Royal Philarmonic Orchestra - Humoresque (2:26)
06. Henry Mancini - The Entertainer (3:35)
07. London Promenade Orchestra - Für Elise (2:11)
08. Robert Mandell - Peg O' My Heart (2:11)
09. London Promenade Orchestra - The Yellow Rose Of Texas (2:59)
10. Joe Reisman - Moonglow and Theme From Picnic (2:18)
11. Richard Alden - Bewitched (3:01)
12. RCA Symphony Orchestra - Never On Sunday (3:02)
13. Joe Reisman - The Song From Moulin Rouge (2:58)
14. Perry Botkin Jr - Give My Regards to Broadway/Yankee Doodle Boy (2:22)
15. Buddy Bregman - Cindy (2:17)
16. London Promenade Orchestra - Jeanie With The Light Brown Hair (2:24)
17. Johnny Gibbs - Shenandoah (3:15)
18. Paul Weston - When You And I Were Young, Maggie (3:40)

Лог создания рипа

Exact Audio Copy V1.0 beta 3 from 29. August 2011
EAC extraction logfile from 20. September 2017, 13:58
Reader's Digest / Moonlight Serenade
Used drive : PIONEER BD-RW BDR-TD03 Adapter: 0 ID: 1
Read mode : Secure
Utilize accurate stream : Yes
Defeat audio cache : Yes
Make use of C2 pointers : No
Read offset correction : 667
Overread into Lead-In and Lead-Out : No
Fill up missing offset samples with silence : Yes
Delete leading and trailing silent blocks : No
Null samples used in CRC calculations : Yes
Used interface : Native Win32 interface for Win NT & 2000
Used output format : User Defined Encoder
Selected bitrate : 768 kBit/s
Quality : High
Add ID3 tag : No
Command line compressor : C:\Program Files (x86)\Exact Audio Copy\FLAC\FLAC.EXE
Additional command line options : -6 -V -T "ARTIST=%artist%" -T "TITLE=%title%" -T "ALBUM=%albumtitle%" -T "DATE=%year%" -T "TRACKNUMBER=%tracknr%" -T "GENRE=%genre%" -T "COMMENT=%comment%" -T "BAND=%albuminterpret%" -T "ALBUMARTIST=%albuminterpret%" -T "COMPOSER=%composer%" %haslyrics%--tag-from-file=LYRICS="%lyricsfile%"%haslyrics% -T "DISCNUMBER=%cdnumber%" -T "TOTALDISCS=%totalcds%" -T "TOTALTRACKS=%numtracks%" %hascover%--picture="%coverfile%"%hascover% %source% -o %dest%
TOC of the extracted CD
Track | Start | Length | Start sector | End sector
---------------------------------------------------------
1 | 0:00.00 | 2:39.57 | 0 | 11981
2 | 2:39.57 | 2:43.10 | 11982 | 24216
3 | 5:22.67 | 2:50.55 | 24217 | 37021
4 | 8:13.47 | 3:07.68 | 37022 | 51114
5 | 11:21.40 | 2:26.70 | 51115 | 62134
6 | 13:48.35 | 3:35.00 | 62135 | 78259
7 | 17:23.35 | 2:11.60 | 78260 | 88144
8 | 19:35.20 | 2:11.27 | 88145 | 97996
9 | 21:46.47 | 2:59.43 | 97997 | 111464
10 | 24:46.15 | 2:18.70 | 111465 | 121884
11 | 27:05.10 | 3:01.35 | 121885 | 135494
12 | 30:06.45 | 3:02.02 | 135495 | 149146
13 | 33:08.47 | 2:58.63 | 149147 | 162559
14 | 36:07.35 | 2:22.42 | 162560 | 173251
15 | 38:30.02 | 2:17.23 | 173252 | 183549
16 | 40:47.25 | 2:24.20 | 183550 | 194369
17 | 43:11.45 | 3:15.40 | 194370 | 209034
18 | 46:27.10 | 3:40.57 | 209035 | 225591
Range status and errors
Selected range
Filename C:\Users\Deris\Desktop\kpnemo.eu\MoonSeren\Reader's Digest - Moonlight Serenade.wav
Peak level 100.0 %
Extraction speed 4.6 X
Range quality 99.9 %
Test CRC CF1CC387
Copy CRC CF1CC387
Copy OK
No errors occurred
AccurateRip summary
Track 1 accurately ripped (confidence 1) [DC35CFC1] (AR v2)
Track 2 accurately ripped (confidence 1) [46938494] (AR v2)
Track 3 accurately ripped (confidence 1) [FF9F52D3] (AR v2)
Track 4 accurately ripped (confidence 1) [22151230] (AR v2)
Track 5 accurately ripped (confidence 1) [921325EE] (AR v2)
Track 6 accurately ripped (confidence 1) [A19F94F0] (AR v2)
Track 7 accurately ripped (confidence 1) [4F333981] (AR v2)
Track 8 accurately ripped (confidence 1) [0502EC0A] (AR v2)
Track 9 accurately ripped (confidence 1) [80FC8D80] (AR v2)
Track 10 accurately ripped (confidence 1) [5B2423AC] (AR v2)
Track 11 accurately ripped (confidence 1) [2637DD40] (AR v2)
Track 12 accurately ripped (confidence 1) [F07945CD] (AR v2)
Track 13 accurately ripped (confidence 1) [52CBA297] (AR v2)
Track 14 accurately ripped (confidence 1) [195AC0CC] (AR v2)
Track 15 accurately ripped (confidence 1) [23D470B8] (AR v2)
Track 16 accurately ripped (confidence 1) [B7CCE5AF] (AR v2)
Track 17 accurately ripped (confidence 1) [A3A5B241] (AR v2)
Track 18 accurately ripped (confidence 1) [AFF5478B] (AR v2)
All tracks accurately ripped
End of status report
---- CUETools DB Plugin V2.1.3
[CTDB TOCID: 7MIFN4E8kghrvnhJfCR.io9pNj4-] found, Submit result: 7MIFN4E8kghrvnhJfCR.io9pNj4- has been confirmed
[15d47e25] (6/6) Accurately ripped
==== Log checksum B784D7AA16B30988EED118793CBCBC4EA3B5D998B403B4CE0684C596DF7710FB ====

Содержание индексной карты (.CUE)

REM GENRE "Easy Listening"
REM DATE 2006
REM DISCID 0B0BBF12
REM COMMENT "ExactAudioCopy v1.0b3"
PERFORMER "Reader's Digest"
TITLE "Moonlight Serenade"
FILE "Reader's Digest - Moonlight Serenade.flac" WAVE
TRACK 01 AUDIO
TITLE "The Romantic Strings - Moonlight Serenade"
PERFORMER "Reader's Digest"
INDEX 01 00:00:00
TRACK 02 AUDIO
TITLE "Roger Williams - Canadian Sunset"
PERFORMER "Reader's Digest"
INDEX 00 02:38:20
INDEX 01 02:39:57
TRACK 03 AUDIO
TITLE "London Promenade Orchestra - Because"
PERFORMER "Reader's Digest"
INDEX 00 05:21:32
INDEX 01 05:22:67
TRACK 04 AUDIO
TITLE "Nelson Riddle - Can't Take My Eyes Off You"
PERFORMER "Reader's Digest"
INDEX 00 08:11:40
INDEX 01 08:13:47
TRACK 05 AUDIO
TITLE "Royal Philarmonic Orchestra - Humoresque"
PERFORMER "Reader's Digest"
INDEX 00 11:20:07
INDEX 01 11:21:40
TRACK 06 AUDIO
TITLE "Henry Mancini - The Entertainer"
PERFORMER "Reader's Digest"
INDEX 00 13:46:72
INDEX 01 13:48:35
TRACK 07 AUDIO
TITLE "London Promenade Orchestra - Fьr Elise"
PERFORMER "Reader's Digest"
INDEX 01 17:23:35
TRACK 08 AUDIO
TITLE "Robert Mandell - Peg O' My Heart"
PERFORMER "Reader's Digest"
INDEX 00 19:34:12
INDEX 01 19:35:20
TRACK 09 AUDIO
TITLE "London Promenade Orchestra - The Yellow Rose Of Texas"
PERFORMER "Reader's Digest"
INDEX 01 21:46:47
TRACK 10 AUDIO
TITLE "Joe Reisman - Moonglow and Theme From Picnic"
PERFORMER "Reader's Digest"
INDEX 01 24:46:15
TRACK 11 AUDIO
TITLE "Richard Alden - Bewitched"
PERFORMER "Reader's Digest"
INDEX 00 27:03:66
INDEX 01 27:05:10
TRACK 12 AUDIO
TITLE "RCA Symphony Orchestra - Never On Sunday"
PERFORMER "Reader's Digest"
INDEX 00 30:04:35
INDEX 01 30:06:45
TRACK 13 AUDIO
TITLE "Joe Reisman - The Song From Moulin Rouge"
PERFORMER "Reader's Digest"
INDEX 00 33:06:62
INDEX 01 33:08:47
TRACK 14 AUDIO
TITLE "Perry Botkin Jr - Give My Regards to Broadway/Yankee Doodle Boy"
PERFORMER "Reader's Digest"
INDEX 01 36:07:35
TRACK 15 AUDIO
TITLE "Buddy Bregman - Cindy"
PERFORMER "Reader's Digest"
INDEX 01 38:30:02
TRACK 16 AUDIO
TITLE "London Promenade Orchestra - Jeanie With The Light Brown Hair"
PERFORMER "Reader's Digest"
INDEX 00 40:45:45
INDEX 01 40:47:25
TRACK 17 AUDIO
TITLE "Johnny Gibbs - Shenandoah"
PERFORMER "Reader's Digest"
INDEX 00 43:10:04
INDEX 01 43:11:45
TRACK 18 AUDIO
TITLE "Paul Weston - When You And I Were Young, Maggie"
PERFORMER "Reader's Digest"
INDEX 00 46:25:10
INDEX 01 46:27:10

DR Log

foobar2000 1.3.13 / Замер динамического диапазона (DR) 1.1.1
Дата отчёта: 2017-09-20 15:59:33
--------------------------------------------------------------------------------
Анализ: Reader's Digest / Moonlight Serenade
--------------------------------------------------------------------------------
DR Пики RMS Продолжительность трека
--------------------------------------------------------------------------------
DR9 -1.69 дБ -14.54 дБ 2:40 01-The Romantic Strings - Moonlight Serenade
DR12 -0.97 дБ -15.37 дБ 2:43 02-Roger Williams - Canadian Sunset
DR11 0.00 дБ -16.21 дБ 2:51 03-London Promenade Orchestra - Because
DR11 -1.15 дБ -14.45 дБ 3:08 04-Nelson Riddle - Can't Take My Eyes Off You
DR13 -1.12 дБ -19.26 дБ 2:27 05-Royal Philarmonic Orchestra - Humoresque
DR13 0.00 дБ -15.93 дБ 3:35 06-Henry Mancini - The Entertainer
DR12 -3.18 дБ -18.83 дБ 2:12 07-London Promenade Orchestra - Für Elise
DR12 -1.38 дБ -16.48 дБ 2:11 08-Robert Mandell - Peg O' My Heart
DR10 -1.40 дБ -14.09 дБ 3:00 09-London Promenade Orchestra - The Yellow Rose Of Texas
DR10 -0.75 дБ -14.21 дБ 2:19 10-Joe Reisman - Moonglow and Theme From Picnic
DR12 0.00 дБ -15.36 дБ 3:01 11-Richard Alden - Bewitched
DR11 -1.07 дБ -15.87 дБ 3:02 12-RCA Symphony Orchestra - Never On Sunday
DR11 -0.30 дБ -14.29 дБ 2:59 13-Joe Reisman - The Song From Moulin Rouge
DR9 -1.95 дБ -13.39 дБ 2:23 14-Perry Botkin Jr - Give My Regards to Broadway/Yankee Doodle Boy
DR12 -0.20 дБ -13.99 дБ 2:17 15-Buddy Bregman - Cindy
DR11 -1.48 дБ -16.20 дБ 2:24 16-London Promenade Orchestra - Jeanie With The Light Brown Hair
DR11 -2.31 дБ -18.44 дБ 3:16 17-Johnny Gibbs - Shenandoah
DR10 -1.58 дБ -14.47 дБ 3:41 18-Paul Weston - When You And I Were Young, Maggie
--------------------------------------------------------------------------------
Количество треков: 18
Реальные значения DR: DR11
Частота: 44100 Гц
Каналов: 2
Разрядность: 16
Битрейт: 784 кбит/с
Кодек: FLAC
================================================================================
[cybertorrent.ru].t41537.torrent 
Торрент: Зарегистрирован [ 2018-03-19 15:15 ] · F98E8B097DB3C77C03CC9321777E2C6991994C24

Скачать .torrent

Скачать

15 KB

Статус: проверено
Скачан: 0 раз
Размер: 363 MB
Профиль [ЛС]
Показать сообщения:    

Текущее время: 24-Апр 04:47

Часовой пояс: UTC ± 0



Вы не можете начинать темы
Вы не можете отвечать на сообщения
Вы не можете редактировать свои сообщения
Вы не можете удалять свои сообщения
Вы не можете голосовать в опросах
Вы не можете прикреплять файлы к сообщениям
Вы можете скачивать файлы