Статистика раздачи
Размер:  80,1 GB   |    Зарегистрирован:  6 месяцев 2 дня   |    Скачан:  0 раз

Полного источника не было: Никогда

 
   
 
 

Virtuoz ®

Пол:
Не указан
Стаж:
7 месяцев 6 дней
Сообщений:
98

Новая игра!! / New Game!!
Год выпуска: 2017
Страна: Япония
Жанр: повседневность, комедия
Тип: TV
Продолжительность: 12 эп. по 24 мин.
Озвучка: нет
Русские субтитры: есть (отдельным файлом, формат .ass)
Перевод:
  • Seiya Loveless, Surokune, Саша Ушкина
    Хардсаб: Нет-Режиссер: Фудзивара Ёсиюки
    Студия: Doga Kobo
    Описание: «Видеоигры — мое все!», — таков девиз выпускницы старшей школы Аобы Сузуказэ. По окончанию школы она отправляется работать художником заднего плана в компанию-разработчика игр. Но мало того, что сама Аоба выглядит отнюдь не как старшеклассница, так еще и попадает в команду чудаков-разработчиков! Сможет ли в такой компании Аоба воплотить свою мечту в реальность: занять роль проектировщика в столь неоднозначном коллективе?
    Второй сезон.
    Качество: Blu-Ray Remux
    Формат: MKV
    Видео кодек: AVC
    Аудио кодек: FLAC
    Видео: 1920x1080 (16:9) 23,976 fps ~37,5 Mbps 8bit
    Аудио:
    Jap FLAC, 48000Hz, ~654 Kbps, 2ch
    Чаптеры присутствуют.

    Список эпизодов

    01. Of all the embarrassing things to be caught doing...
    02. This Is Just Turning Into Cos-purr-lay!
    03. Ooh, I'm So Embarrassed!
    04. How Dense... Can You Be?
    05. Hey! Don't Touch Me There!
    06. Wow... It's So Amazing...
    07. I'm Sensing a Very Intense Gaze
    08. I'm Telling You, I Want a Maid Café
    09. At Least Put a Shirt On!
    10. It's Gonna Really Break the Immersion
    11. I Shudder to Imagine What's Hidden in Your Heart
    12. Please Buy It!

    MediaInfo

    Общее
    Уникальный идентификатор : 239278970167193122605539365259933332317 (0xB40374101A647126AA34C9FB8B17335D)
    Полное имя : Z:\Anime Release - working\New Game\[anti-raws]New Game!! ep.01[BDRemux].mkv
    Формат : Matroska
    Версия формата : Version 4 / Version 2
    Размер файла : 6,46 Гбайт
    Продолжительность : 23 м. 41 с.
    Режим общего битрейта : Переменный
    Общий поток : 39,0 Мбит/сек
    Дата кодирования : UTC 2017-10-11 18:29:04
    Программа кодирования : mkvmerge v16.0.0 ('Protest') 64-bit
    Библиотека кодирования : libebml v1.3.5 + libmatroska v1.4.8
    Видео
    Идентификатор : 2
    Формат : AVC
    Формат/Информация : Advanced Video Codec
    Профиль формата : High@L4.1
    Параметр CABAC формата : Да
    Параметр ReFrames формата : 4 кадра
    Идентификатор кодека : V_MPEG4/ISO/AVC
    Продолжительность : 23 м. 41 с.
    Вид битрейта : Постоянный
    Битрейт : 39,0 Мбит/сек
    Ширина : 1920 пикселей
    Высота : 1080 пикселей
    Соотношение сторон : 16:9
    Режим частоты кадров : Постоянный
    Частота кадров : 23,976 (24000/1001) кадра/сек
    Цветовое пространство : YUV
    Субдискретизация насыщенности : 4:2:0
    Битовая глубина : 8 бит
    Тип развёртки : Прогрессивная
    Бит/(Пиксели*Кадры) : 0.784
    Размер потока : 6,35 Гбайт (98%)
    Default : Нет
    Forced : Нет
    Цветовой диапазон : Limited
    Основные цвета : BT.709
    Характеристики трансфера : BT.709
    Коэффициенты матрицы : BT.709
    Аудио
    Идентификатор : 1
    Формат : FLAC
    Формат/Информация : Free Lossless Audio Codec
    Идентификатор кодека : A_FLAC
    Продолжительность : 23 м. 41 с.
    Вид битрейта : Переменный
    Битрейт : 653 Кбит/сек
    Каналы : 2 канала
    Расположение каналов : Front: L R
    Частота : 48,0 КГц
    Частота кадров : 11,719 кадров/сек (4096 spf)
    Битовая глубина : 16 бит
    Размер потока : 111 Мбайт (2%)
    Библиотека кодирования : libFLAC 1.2.1 (UTC 2007-09-17)
    Язык : Japanese
    Default : Да
    Forced : Нет
    Меню
    00:00:00.000 : en:00:00:00.000
    00:00:48.048 : en:00:00:48.048
    00:11:35.028 : en:00:11:35.028
    00:22:35.354 : en:00:22:35.354

    Скриншоты

    Отличия от существующих раздач

    http://cybertorrent.ru/viewtopic.php?t=5444360
    http://cybertorrent.ru/viewtopic.php?t=5423699
    --WEBRip
    http://cybertorrent.ru/viewtopic.php?t=5464862
    --BDRip
    Эта раздача - BDRemux
    [cybertorrent.ru].t41544.torrent 
    Торрент: Зарегистрирован [ 2018-03-19 15:15 ] · C7B9387523E6658AC5A205FB5F7FD01291AA1BAD

    Скачать .torrent

    Скачать

    106 KB

    Статус: проверено
    Скачан: 0 раз
    Размер: 80,1 GB
  • Профиль [ЛС]
    Показать сообщения:    

    Текущее время: 21-Сен 16:18

    Часовой пояс: UTC ± 0



    Вы не можете начинать темы
    Вы не можете отвечать на сообщения
    Вы не можете редактировать свои сообщения
    Вы не можете удалять свои сообщения
    Вы не можете голосовать в опросах
    Вы не можете прикреплять файлы к сообщениям
    Вы можете скачивать файлы
    Torrents24.ru открытый BitTorrent Torrents24.pl открытый BitTorrent CyberTorrent.ru открытый BitTorrent BtList.ru рейтинг BitTorrent трекеров Яндекс.Метрика