Статистика раздачи
Размер:  9,96 GB   |    Зарегистрирован:  1 месяц 3 дня   |    Скачан:  0 раз

Полного источника не было: Никогда

 
   
 
 

krek ®

Пол:
Не указан
Стаж:
2 месяца 7 дней
Сообщений:
176

- Год выпуска: 2016
Страна: Япония
Жанр: меха, фантастика, драма
Продолжительность: TV, 25 эп. по 25 мин.
Режиссер: Нагай Тацуюки
Студия: Sunrise
Выпуск: с 02.10.2016 по 02.04.2017-Описание:

Доставив Куделию Айну Бернштейн на Землю и с боем сопроводив ее вместе с бывшим премьер-министром Арбрау на пленарное заседание парламента, «Тэккадан» в глазах окружающих превратился из горстки детей в силу, с которой надо считаться. Но цель еще не достигнута. Место, которое так отчаянно старается найти для своей «семьи» Орга, еще не найдено... Но сколько должно погибнуть людей, чтобы «Тэккадан» наконец перестал быть пешкой в чьих-то коварных руках? Сколько голов должно быть сложено у ног «Барбатоса» под управлением Миказуки?
Кто знает, как долго эти вопросы могли оставаться без ответов, если бы честолюбивый МакГиллис Фарид — бывший враг, а ныне союзник — не предложил сотрудничество, не между прочим упомянув, что, помогая ему, «Тэккадан» может достигнуть того, к чему так исступленно стремится.
Кровавые интриги нового главы семейства Фарид несомненно коснутся всех членов «Железного цветка», многие погибнут. Главное, убедить себя лишь в одном: награда достойна такой цены.© Joseph .
-Информационные ссылки: AniDB || World Art || MAL-Качество: BDRip
Автор рипа: Horodep & Jensen & DJATOM [Beatrice-Raws]
Тип релиза: Без хардсаба; без линковки; с главами
Формат видео: MKV
Видео: MPEG4(х264); 10 bit; 1920x1080; ~5 400 Кбит/сек; 23.976 кадра/сек
Аудио JAP: FLAC; 48kHz; 2ch; 24bit; ~1 500 Кбит/сек
Субтитры RUS: ASS; внешние; перевод: Daisuki

Субтитры ENG: ASS; внешние; перевод: HorribleSubs

Список эпизодов

26. Новая кровь
27. Невзирая на зависть
28. Битва переда рассветом
29. Возможность для продвижения
30. Церемония инаугурации сил обороны Арбрау
31. Тихая война
32. Друг мой
33. Правитель Марса

34. Восход Видара
35. Пробуждается беда
36. Запятнанные крылья
37. Битва за Крайс
38. Охотник на ангелов
39. Совет
40. В свете слепящего Солнца
41. Естественно для человека
42. Решение
43. Раскрытые намерения
44. Тот, кто владеет душой
45. Если это конец
46. Для кого?
47. Козел отпущения
48. Обещание
49. Макгиллис Фарид
50. Их место

Скриншоты

Отличия от других раздач

icc7 - BDRip
-

Подробные тех. данные

General
Unique ID : 249006617832250377838278036929611103291 (0xBB54EE1F2FCE8821BDEEE9F98CE0FC3B)
Complete name : \Kidou Senshi Gundam - Tekketsu no Orphans - 2nd Season [BDRip 1920x1080 x264 FLAC]\[Beatrice-Raws] Kidou Senshi Gundam - Tekketsu no Orphans 26 [BDRip 1920x1080 x264 FLAC].mkv
Format : Matroska
Format version : Version 4 / Version 2
File size : 1.18 GiB
Duration : 24 min 29 s
Overall bit rate mode : Variable
Overall bit rate : 6 907 kb/s
Encoded date : UTC 2017-12-06 10:43:54
Writing application : mkvmerge v13.0.0 ('The Juggler') 64bit
Writing library : libebml v1.3.4 + libmatroska v1.4.5
Video
ID : 1
Format : AVC
Format/Info : Advanced Video Codec
Format profile : High 10@L5
Format settings, CABAC : Yes
Format settings, RefFrames : 4 frames
Codec ID : V_MPEG4/ISO/AVC
Duration : 24 min 29 s
Bit rate : 5 437 kb/s
Width : 1 920 pixels
Height : 1 080 pixels
Display aspect ratio : 16:9
Frame rate mode : Constant
Frame rate : 23.976 (24000/1001) FPS
Color space : YUV
Chroma subsampling : 4:2:0
Bit depth : 10 bits
Scan type : Progressive
Bits/(Pixel*Frame) : 0.109
Stream size : 952 MiB (79%)
Title : BDrip by Horodep & Jensen & DJATOM
Writing library : x264 core 152 r2851 ba24899 (DJATOM's build)
Encoding settings : cabac=1 / ref=4 / deblock=1:1:-1 / analyse=0x3:0x113 / me=umh / subme=9 / psy=1 / psy_rd=1.00:0.00 / mixed_ref=1 / me_range=32 / chroma_me=1 / trellis=2 / 8x8dct=1 / cqm=0 / deadzone=21,11 / fast_pskip=1 / chroma_qp_offset=-2 / threads=12 / lookahead_threads=2 / sliced_threads=0 / nr=0 / decimate=1 / interlaced=0 / bluray_compat=0 / constrained_intra=0 / bframes=9 / b_pyramid=2 / b_adapt=2 / b_bias=0 / direct=1 / weightb=1 / open_gop=0 / weightp=2 / keyint=240 / keyint_min=23 / scenecut=40 / intra_refresh=0 / rc=crf / mbtree=0 / crf=15.0000 / qcomp=0.72 / qpmin=0 / qpmax=81 / qpstep=4 / ip_ratio=1.40 / pb_ratio=1.30 / aq=1:0.85
Language : Japanese
Default : Yes
Forced : No
Color range : Limited
Color primaries : BT.709
Transfer characteristics : BT.709
Matrix coefficients : BT.709
Audio
ID : 2
Format : FLAC
Format/Info : Free Lossless Audio Codec
Codec ID : A_FLAC
Duration : 24 min 29 s
Bit rate mode : Variable
Bit rate : 1 468 kb/s
Channel(s) : 2 channels
Channel positions : Front: L R
Sampling rate : 48.0 kHz
Frame rate : 11.719 FPS (4096 SPF)
Bit depth : 24 bits
Stream size : 257 MiB (21%)
Writing library : libFLAC 1.3.2 (UTC 2017-01-01)
Language : Japanese
Default : Yes
Forced : No
Menu
00:00:00.000 : en:Avant
00:03:31.044 : en:Part A
00:13:34.021 : en:Part B
00:22:43.445 : en:ED
00:24:11.992 : en:Next
-

Информация о релизе

  • Выбор видео, перевода, осуществляется релизером и не подлежит обсуждению. Если вы считаете, что раздаваемый материал противоречит правилам раздела "Аниме" rutracker.org, сообщите об этом одному из модераторов раздела.

  • Данный релиз предназначен для просмотра на ПК. Воспроизведение на иных проигрывателях не гарантируется.

  • Данный релиз содержит 10-битное видео (Hi10p). Для корректного воспроизведения обязательно используйте кодеки, поддерживающие 10-битное видео.
    Обсудить проблемы с воспроизведением и получить дополнительную информацию можно здесь.

  • Данный релиз предназначен для просмотра с внешними субтитрами.
  • Для просмотра с русскими субтитрами нужно:
  • скопировать файлы .ass из папки "RUS Subs" в одну папку с видео - плеер подгрузит их автоматически при открытии видео.
  • Для просмотра с английскими субтитрами нужно:
  • скопировать файлы .ass из папки "ENG Subs" в одну папку с видео - плеер подгрузит их автоматически при открытии видео.
  • Если у вас возникли проблемы с просмотром, не связанные с описанным выше, сообщите о них автору раздачи посредством сообщения в теме или ЛС Horodep.
  • [cybertorrent.ru].t41545.torrent 
    Торрент: Зарегистрирован [ 2018-03-19 15:15 ] · 846F219F63002CA02367DA19A6FA95C5DA8595EC

    Скачать .torrent

    Скачать

    53 KB

    Статус: проверено
    Скачан: 0 раз
    Размер: 9,96 GB
    Профиль [ЛС]
    Показать сообщения:    

    Текущее время: 22-Апр 23:47

    Часовой пояс: UTC ± 0



    Вы не можете начинать темы
    Вы не можете отвечать на сообщения
    Вы не можете редактировать свои сообщения
    Вы не можете удалять свои сообщения
    Вы не можете голосовать в опросах
    Вы не можете прикреплять файлы к сообщениям
    Вы можете скачивать файлы