Статистика раздачи
Размер:  5,82 GB   |    Зарегистрирован:  1 месяц 4 дня   |    Скачан:  0 раз

Полного источника не было: Никогда

 
   
 
 

Virtuoz ®

Пол:
Не указан
Стаж:
2 месяца 9 дней
Сообщений:
238

Цитрус / Citrus- Страна: Япония
Год выпуска: 2018
Жанр: Драма, романтика, школа, сёдзе ай
Тип: TV
Продолжительность: 12 эп. по 25 мин
Режиссер: Такахаси Такэо
Студия:
Перевод:
Русские субтитры от Crunchyroll | Внешние.
Описание: Красавица и модница Юзу переводится в новую школу, когда её мама снова выходит замуж и они переезжают в дом её нового мужа. Юзу мечтает найти в школе свою первую любовь, но её ждёт жесткое разочарование, когда она понимает, что попала в очень строгую школу для девочек. В первый же день она ссорится с красивой, но холодной главой учсовета Мей. Вскоре Юзу узнаёт, что Мей — её новая сводная сестра и они теперь будут жить под одной крышей. Противоположности притягиваются и начинается непростой роман между двумя старшеклассницами.
Качество: WEBRip
Тип релиза: Без хардсаба
Формат видео: MKV
Релиз/Автор рипа: HorribleSubs
Видео: x264 (8bit), 1920x1080, ~3072 Kbps, 23.976 fps
Аудио JAP: AAC, 44.1 kHz, ~128Kbps, 2ch

Подробные тех. данные

General
Unique ID : 194780399306210846910659072348973586563 (0x92895721DB2AD0A991F755BF16125883)
Complete name : D:\ANIME\[HorribleSubs] Citrus [1080]\[HorribleSubs] Citrus - 01 [1080p].mkv
Format : Matroska
Format version : Version 4 / Version 2
File size : 542 MiB
Duration : 23 min 40 s
Overall bit rate : 3 202 kb/s
Encoded date : UTC 2018-01-13 20:21:27
Writing application : mkvmerge v17.0.0 ('Be Ur Friend') 64-bit
Writing library : libebml v1.3.5 + libmatroska v1.4.8
Video
ID : 1
Format : AVC
Format/Info : Advanced Video Codec
Format profile : High@L4
Format settings, CABAC : Yes
Format settings, RefFrames : 4 frames
Codec ID : V_MPEG4/ISO/AVC
Duration : 23 min 40 s
Bit rate : 3 072 kb/s
Width : 1 920 pixels
Height : 1 080 pixels
Display aspect ratio : 16:9
Frame rate mode : Constant
Frame rate : 23.976 (24000/1001) FPS
Original frame rate : 23.976 (23976/1000) FPS
Color space : YUV
Chroma subsampling : 4:2:0
Bit depth : 8 bits
Scan type : Progressive
Bits/(Pixel*Frame) : 0.062
Stream size : 520 MiB (96%)
Writing library : x264 core 120 r2120 0c7dab9
Encoding settings : cabac=1 / ref=4 / deblock=1:1:1 / analyse=0x3:0x113 / me=umh / subme=8 / psy=1 / psy_rd=0.40:0.00 / mixed_ref=1 / me_range=16 / chroma_me=1 / trellis=1 / 8x8dct=1 / cqm=0 / deadzone=21,11 / fast_pskip=1 / chroma_qp_offset=-2 / threads=8 / sliced_threads=0 / nr=0 / decimate=1 / interlaced=0 / bluray_compat=0 / constrained_intra=0 / bframes=3 / b_pyramid=2 / b_adapt=2 / b_bias=0 / direct=3 / weightb=1 / open_gop=0 / weightp=2 / keyint=250 / keyint_min=23 / scenecut=40 / intra_refresh=0 / rc_lookahead=50 / rc=2pass / mbtree=1 / bitrate=3072 / ratetol=1.0 / qcomp=0.60 / qpmin=0 / qpmax=69 / qpstep=4 / cplxblur=20.0 / qblur=0.5 / vbv_maxrate=6144 / vbv_bufsize=15360 / nal_hrd=none / ip_ratio=1.40 / aq=1:0.60
Default : Yes
Forced : No
Audio
ID : 2
Format : AAC
Format/Info : Advanced Audio Codec
Format profile : LC
Codec ID : A_AAC
Duration : 23 min 40 s
Bit rate : 128 kb/s
Channel(s) : 2 channels
Channel positions : Front: L R
Sampling rate : 44.1 kHz
Frame rate : 43.066 FPS (1024 SPF)
Compression mode : Lossy
Stream size : 21.7 MiB (4%)
Default : Yes
Forced : No

Список эпизодов

01. Love Affair!? \ Любовная связь?!
02. One`s First Love \ Первая любовь
03. Sisterly love? \ Сестринская любовь?
04. love me do! \ Люби же меня!
05. Under lover \ Тайная возлюбленная
06. Out of Love \ Из-за любви
07. Love or Lie! \ Любовь или ложь!
08. War of Love \ Любовная война
09. love is \ Любовь - это
10. Winter of Love \ Зима любви
11. Love You Only \ Люблю только тебя

Скриншоты

[cybertorrent.ru].t41548.torrent 
Торрент: Зарегистрирован [ 2018-03-19 15:15 ] · D87DF8DDEEFA65D96D0F56A47A234F7A7B61F166

Скачать .torrent

Скачать

119 KB

Статус: проверено
Скачан: 0 раз
Размер: 5,82 GB
Профиль [ЛС]
Показать сообщения:    

Текущее время: 24-Апр 14:00

Часовой пояс: UTC ± 0



Вы не можете начинать темы
Вы не можете отвечать на сообщения
Вы не можете редактировать свои сообщения
Вы не можете удалять свои сообщения
Вы не можете голосовать в опросах
Вы не можете прикреплять файлы к сообщениям
Вы можете скачивать файлы