Статистика раздачи
Размер:  232 MB   |    Зарегистрирован:  2 месяца 4 дня   |    Скачан:  0 раз

Полного источника не было: Никогда

 
   
 
 

porter ®

Пол:
Не указан
Стаж:
3 месяца 7 дней
Сообщений:
158

Nadama - Love Is
Жанр: New Age, Relax, Instrumental, Piano
Носитель: CD
Страна-производитель диска (релиза): USA
Год издания: 2003
Издатель (лейбл): Malimba
Номер по каталогу: B00009WDOG
Страна исполнителя: USA
Аудиокодек: FLAC (*.flac)
Тип рипа: image+.cue
Битрейт аудио: lossless
Продолжительность: 00:53:41
Источник: найдено в сети
Наличие сканов в содержимом раздачи: нет
Треклист:
01 - Gift of Love
02 - Love In the Air
03 - Sweet Surrender
04 - Rose Of The Heart
05 - Dancing In Your Garden
06 - Deeper Into Love
07 - Love Is
08 - In The Rain
09 - Together Alone

Содержание индексной карты (.CUE)

REM GENRE Piano
REM DATE 2003
REM COMMENT
PERFORMER "Nadama"
TITLE "Love is"
FILE "Nadama - Love is.flac" WAVE
TRACK 01 AUDIO
TITLE "Gift of Love"
INDEX 01 00:00:00
TRACK 02 AUDIO
TITLE "Love in the Air"
INDEX 01 05:28:07
TRACK 03 AUDIO
TITLE "Sweet Surrender"
INDEX 01 11:20:41
TRACK 04 AUDIO
TITLE "Rose of the Heart"
INDEX 01 17:36:31
TRACK 05 AUDIO
TITLE "Dancing in your Garden"
INDEX 01 23:17:65
TRACK 06 AUDIO
TITLE "Deeper into Love"
INDEX 01 27:59:30
TRACK 07 AUDIO
TITLE "Love Is"
INDEX 01 34:53:22
TRACK 08 AUDIO
TITLE "In the Rain"
INDEX 01 42:54:54
TRACK 09 AUDIO
TITLE "Together Alone"
INDEX 01 48:59:71

Лог проверки качества

-----------------------
DON'T MODIFY THIS FILE
-----------------------
PERFORMER: auCDtect Task Manager, ver. 1.6.0 RC1 build 1.6.0.1
Copyright (c) 2008-2010 y-soft. All rights reserved
http://y-soft.org
ANALYZER: auCDtect: CD records authenticity detector, version 0.8.2
Copyright (c) 2004 Oleg Berngardt. All rights reserved.
Copyright (c) 2004 Alexander Djourik. All rights reserved.
FILE: Nadama - Love Is.flac
Size: 243395182 Hash: C506DF94E4FEBE71C4AD833699E9426B Accuracy: -m0
Conclusion: CDDA 85%
Signature: 156146F390184EC150F98332754CB5EF19A26786

Об исполнителе

Pianist and composer, Nadama has traveled widely throughout the world.
Music for spas, yoga, healing, massage, reiki and tantra on award.
Music "Delicate and soulful, the melodies on Healing Touch reflect the sensitivity of their creator." Delicate piano melodies with gentle orchestration of harp, strings...
[cybertorrent.ru].t41563.torrent 
Торрент: Зарегистрирован [ 2018-03-19 15:15 ] · 6036F98018CA9DF1EAF0BF238651D02BBA9E0AFB

Скачать .torrent

Скачать

19 KB

Статус: проверено
Скачан: 0 раз
Размер: 232 MB
Профиль [ЛС]
Показать сообщения:    

Текущее время: 23-Май 18:38

Часовой пояс: UTC ± 0



Вы не можете начинать темы
Вы не можете отвечать на сообщения
Вы не можете редактировать свои сообщения
Вы не можете удалять свои сообщения
Вы не можете голосовать в опросах
Вы не можете прикреплять файлы к сообщениям
Вы можете скачивать файлы