Статистика раздачи
Размер:  219 MB   |    Зарегистрирован:  1 месяц 4 дня   |    Скачан:  0 раз

Полного источника не было: Никогда

 
   
 
 

Санёк ®

Пол:
Не указан
Стаж:
2 месяца 5 дней
Сообщений:
125

20th Century Piano Sonatas: Alban Berg / Paul Hindemith / Arnold Schoenberg / Karl Amadeus Hartmann
Фортепианные сонаты XX века: Альбан Берг / Пауль Хиндемит / Арнольд Шенберг / Карл Амадеус Хартман
Жанр: Classical, modern
Страна-производитель диска: Canada
Год издания диска: 2007
Издатель (лейбл): Naxos
Номер по каталогу: 8.570401
Дата записи: 2004
Аудиокодек: FLAC
Тип рипа: image+.cue
Битрейт аудио: lossless
Продолжительность: 01:04:53
Источник: собственный рип
Наличие сканов в содержимом раздачи: да
Треклист:
Alban Berg (1885-1935)
01. Piano Sonata, op. 1 - 10:51
Paul Hindemith (1895-1963): Piano Sonata No. 2
02. I. Mäßig schnell - 03:01
03. II. Lebhaft - 02:05
04. III. Sehr langsam - Rondo: Bewegt - 07:11
Arnold Schoenberg (1874-1951): Drei Klavierstücke
05. I. Andantino - 03:30
06. II. Andantino grazioso - 03:52
07. III. Presto - 03:04
Karl Amadeus Hartmann (1905-1963): Piano Sonata, '27 April 1945'
08. I. Bewegt - 04:47
09. II. Scherzo: Presto assai - 03:50
10. III. Marcia Funebre: Lento - 10:29
11. IV. Allegro risoluto (1st version) - 06:29
12. IV. Allegro furioso (2nd version) - 05:41
Исполнители:
Allison Brewster Franzetti, фортепиано

Лог создания рипа

Exact Audio Copy V1.3 from 2. September 2016
Отчёт EAC об извлечении, выполненном 2. марта 2018, 21:58
Allison Brewster Franzetti / 20th Century Piano Sonatas: Berg, Hindemith, Schoenberg, Hartmann
Дисковод: PIONEER DVD-RW DVR-215D Adapter: 1 ID: 3
Режим чтения : Достоверность
Использование точного потока : Да
Отключение кэша аудио : Да
Использование указателей C2 : Нет
Коррекция смещения при чтении : 48
Способность читать области Lead-in и Lead-out : Нет
Заполнение пропущенных сэмплов тишиной : Да
Удаление блоков с тишиной в начале и конце : Нет
При вычислениях CRC использовались нулевые сэмплы : Да
Интерфейс : Встроенный Win32-интерфейс для Win NT/2000
Выходной формат : Пользовательский кодировщик
Выбранный битрейт : 128 kBit/s
Качество : Высокий
Добавление ID3-тега : Нет
Утилита сжатия : C:\Program Files\Exact Audio Copy\Flac\flac.exe
Дополнительные параметры : -V -8 -T "Date=%year%" -T "Genre=%genre%" %source%
TOC извлечённого CD
Трек | Старт | Длительность | Начальный сектор | Конечный сектор
---------------------------------------------------------------------
1 | 0:00.00 | 10:51.30 | 0 | 48854
2 | 10:51.30 | 3:00.54 | 48855 | 62408
3 | 13:52.09 | 2:04.45 | 62409 | 71753
4 | 15:56.54 | 7:15.17 | 71754 | 104395
5 | 23:11.71 | 3:29.50 | 104396 | 120120
6 | 26:41.46 | 3:52.31 | 120121 | 137551
7 | 30:34.02 | 3:03.41 | 137552 | 151317
8 | 33:37.43 | 4:47.03 | 151318 | 172845
9 | 38:24.46 | 3:50.06 | 172846 | 190101
10 | 42:14.52 | 10:28.43 | 190102 | 237244
11 | 52:43.20 | 6:29.16 | 237245 | 266435
12 | 59:12.36 | 5:40.39 | 266436 | 291974
Характеристики диапазона извлечения и сообщения об ошибках
Выбранный диапазон
Имя файла C:\20th Century Piano Sonatas - Berg, Hindemith, Schoenberg, Hartmann.wav
Пиковый уровень 98.3 %
Скорость извлечения 7.0 X
Качество диапазона 99.9 %
CRC теста 44054FCF
CRC копии 44054FCF
Копирование... OK
Ошибок не произошло
AccurateRip: сводка
Трек 1 : извлечено точно (доверие 4) [9240FFD9] (AR v2)
Трек 2 : извлечено точно (доверие 4) [5D0488FF] (AR v2)
Трек 3 : извлечено точно (доверие 4) [F0880CFA] (AR v2)
Трек 4 : извлечено точно (доверие 4) [786660DD] (AR v2)
Трек 5 : извлечено точно (доверие 4) [1734D138] (AR v2)
Трек 6 : извлечено точно (доверие 4) [B0DAEFBE] (AR v2)
Трек 7 : извлечено точно (доверие 4) [0A848F5A] (AR v2)
Трек 8 : извлечено точно (доверие 4) [AEA827A2] (AR v2)
Трек 9 : извлечено точно (доверие 4) [765C7C74] (AR v2)
Трек 10 : извлечено точно (доверие 4) [ED3079F8] (AR v2)
Трек 11 : извлечено точно (доверие 4) [79BEC1ED] (AR v2)
Трек 12 : извлечено точно (доверие 4) [A9C36411] (AR v2)
Все треки извлечены точно
Конец отчёта
---- CUETools DB Plugin V2.1.6
[CTDB TOCID: DZ60s4eoYdYlVuqeVVe1ndK8VXI-] found
Submit result: DZ60s4eoYdYlVuqeVVe1ndK8VXI- has been confirmed
Track | CTDB Status
1 | (4/4) Accurately ripped
2 | (4/4) Accurately ripped
3 | (4/4) Accurately ripped
4 | (4/4) Accurately ripped
5 | (4/4) Accurately ripped
6 | (4/4) Accurately ripped
7 | (4/4) Accurately ripped
8 | (4/4) Accurately ripped
9 | (4/4) Accurately ripped
10 | (4/4) Accurately ripped
11 | (4/4) Accurately ripped
12 | (4/4) Accurately ripped
==== Контрольная сумма отчёта 8A7AA0C8F03187F6C037F92E0BBDE979CC970712230CC21F022B3FB7DFEC88AA ====

Лог проверки качества

AUDIOCHECKER v2.0 beta (build 457) - by Dester - opdester@freemail.hu
~~~~~~~~~~~~~~~~~~~~~~~~~~~~~~~~~~
Started at: пятница, 02. 03. 2018. - 22:39.38
1 file found
1 -===- G:\_torrents_\20th Century Piano Sonatas (2007)\20th Century Piano Sonatas - Berg, Hindemith, Schoenberg, Hartmann.flac
Extracted successfully
Conclusion: this track is CDDA with probability 100%
Tempfile successfully deleted.
Finished at: пятница, 02. 03. 2018. - 22:46.46 (operation time: 0:07.08)

Скриншот спектра частот

Доп. информация: Записано в студии Skywalker Sound, Nicasio, California, 15-16 ноября 2004 г.
[cybertorrent.ru].t41566.torrent 
Торрент: Зарегистрирован [ 2018-03-19 15:15 ] · C9EA83052F8CC777BDB06FA6C433DAB426041EB2

Скачать .torrent

Скачать

36 KB

Статус: проверено
Скачан: 0 раз
Размер: 219 MB
Профиль [ЛС]
Показать сообщения:    

Текущее время: 24-Апр 04:44

Часовой пояс: UTC ± 0



Вы не можете начинать темы
Вы не можете отвечать на сообщения
Вы не можете редактировать свои сообщения
Вы не можете удалять свои сообщения
Вы не можете голосовать в опросах
Вы не можете прикреплять файлы к сообщениям
Вы можете скачивать файлы