Статистика раздачи
Размер:  335 MB   |    Зарегистрирован:  2 месяца 3 дня   |    Скачан:  0 раз

Полного источника не было: Никогда

 
   
 
 

dash ®

Пол:
Не указан
Стаж:
3 месяца 4 дня
Сообщений:
121

Boismortier: Sonatas & Trios
Жанр: Classical chamber
Страна-производитель диска: Made in Austria
Год издания диска: 2017
Издатель (лейбл): Ricercar
Номер по каталогу: RIC 381
Дата записи: 2015
Аудиокодек: FLAC
Тип рипа: image+.cue
Битрейт аудио: lossless
Продолжительность: 69'20
Источник: релизер
сайт-источник/ник/другое: Bodtje meeting music, подарок
Наличие сканов в содержимом раздачи: да
Треклист:
Sonate IV en sol mineur (Op.41)
flute, violin, continuo (bassoon, cello, harpsichord)
1. Adagio 1'58
2. Allegro 2'09
3. Sarabande 1'51
4. Presto 1'53
5. Minuetto 3'02
6. La Caverneuse 3'35
harpsichord
Sonate VI en ré majeur (Op. 50)
violin, cello, continuo (harpsichord)
7. Largo 5'36
8. Allegro 2'21
9. Larghetto 2'04
10. Allegro 2'38
11. La Décharnée 2'21
harpsichord
Sonate III en sol majeur (Op. 41)
flute, violin, continuo (bassoon, cello, harpsichord)
12. Allegro 2'43
13. Affecttuoso 3'08
14. Vivace 2'29
15. Presto 1'50
16. La Valetudinaire 2'18
harpsichord
Sonate II en mi mineur (Op. 37)
flute, bassoon, continuo (cello, harpsichord)
17. Allegro 2'10
18. Adagio 2'05
19. Allegro 1'40
Sonate II en ré majeur (Op. 41)
flute, violin, continuo (bassoon, cello, harpsichord)
20. Grave 2'24
21. Allegro 2'55
22. Allegro 2'52
23. Largo 1'56
24. Gavotta 2'03
25. La Marguillère 2'58
harpsichord
Sonate V en la mineur (Op. 37)
flute/violin, cello, continuo (bassoon, harpsichord)
26. Vivace 2'04
27. Largo 2'06
28. Allegro 2'14

Исполнители

JOSEPH BODIN DE BOISMORTIER (1689-1755)
SONATAS & TRIOS
LE PETIT TRIANON
Amandine Solano: violin
Olivier Riehl: flute
Cyril Poulet: cello
Xavier Marquis: bassoon
Paolo Corsi: harpsichord
Recording: Chapelle de Boyeux-Saint-Jérôme, septembre 2015
CD 25 May 2017

Лог создания рипа

Exact Audio Copy V1.3 from 2. September 2016
EAC extraction logfile from 3. March 2018, 12:37
Le Petit Trianon / Boismortier: Sonatas & Trios
Used drive : TSSTcorpDVDWBD SE-406AB Adapter: 1 ID: 2
Read mode : Secure
Utilize accurate stream : Yes
Defeat audio cache : Yes
Make use of C2 pointers : No
Read offset correction : 6
Overread into Lead-In and Lead-Out : No
Fill up missing offset samples with silence : Yes
Delete leading and trailing silent blocks : No
Null samples used in CRC calculations : Yes
Used interface : Native Win32 interface for Win NT & 2000
Used output format : User Defined Encoder
Selected bitrate : 768 kBit/s
Quality : High
Add ID3 tag : No
Command line compressor : C:\Program Files (x86)\Exact Audio Copy\FLAC\FLAC.EXE
Additional command line options : -8 -e -p -V -T "ARTIST=%artist%" -T "TITLE=%title%" -T "ALBUM=%albumtitle%" -T "DATE=%year%" -T "TRACKNUMBER=%tracknr%" -T "GENRE=%genre%" -T "PERFORMER=%albuminterpret%" -T "COMPOSER=%composer%" %haslyrics%--tag-from-file=LYRICS="%lyricsfile%"%haslyrics% -T "ALBUMARTIST=%albumartist%" -T "DISCNUMBER=%cdnumber%" -T "TOTALDISCS=%totalcds%" -T "TOTALTRACKS=%numtracks%" -T "COMMENT=%comment%" %source% -o %dest%
TOC of the extracted CD
Track | Start | Length | Start sector | End sector
---------------------------------------------------------
1 | 0:00.00 | 1:57.46 | 0 | 8820
2 | 1:57.46 | 2:08.38 | 8821 | 18458
3 | 4:06.09 | 1:51.32 | 18459 | 26815
4 | 5:57.41 | 1:53.13 | 26816 | 35303
5 | 7:50.54 | 3:02.05 | 35304 | 48958
6 | 10:52.59 | 3:34.39 | 48959 | 65047
7 | 14:27.23 | 5:35.40 | 65048 | 90212
8 | 20:02.63 | 2:20.60 | 90213 | 100772
9 | 22:23.48 | 2:03.61 | 100773 | 110058
10 | 24:27.34 | 2:37.74 | 110059 | 121907
11 | 27:05.33 | 2:20.51 | 121908 | 132458
12 | 29:26.09 | 2:43.00 | 132459 | 144683
13 | 32:09.09 | 3:07.60 | 144684 | 158768
14 | 35:16.69 | 2:29.08 | 158769 | 169951
15 | 37:46.02 | 1:49.61 | 169952 | 178187
16 | 39:35.63 | 2:18.13 | 178188 | 188550
17 | 41:54.01 | 2:10.14 | 188551 | 198314
18 | 44:04.15 | 2:04.43 | 198315 | 207657
19 | 46:08.58 | 1:39.54 | 207658 | 215136
20 | 47:48.37 | 2:23.55 | 215137 | 225916
21 | 50:12.17 | 2:55.25 | 225917 | 239066
22 | 53:07.42 | 2:52.30 | 239067 | 251996
23 | 55:59.72 | 1:56.00 | 251997 | 260696
24 | 57:55.72 | 2:03.32 | 260697 | 269953
25 | 59:59.29 | 2:58.00 | 269954 | 283303
26 | 62:57.29 | 2:03.40 | 283304 | 292568
27 | 65:00.69 | 2:05.62 | 292569 | 302005
28 | 67:06.56 | 2:13.41 | 302006 | 312021
Range status and errors
Selected range
Filename K:\Rips\Le Petit Trianon - Boismortier- Sonatas & Trios.wav
Peak level 67.9 %
Extraction speed 2.1 X
Range quality 99.9 %
Test CRC 97BF9807
Copy CRC 97BF9807
Copy OK
No errors occurred
AccurateRip summary
Track 1 not present in database
Track 2 not present in database
Track 3 not present in database
Track 4 not present in database
Track 5 not present in database
Track 6 not present in database
Track 7 not present in database
Track 8 not present in database
Track 9 not present in database
Track 10 not present in database
Track 11 not present in database
Track 12 not present in database
Track 13 not present in database
Track 14 not present in database
Track 15 not present in database
Track 16 not present in database
Track 17 not present in database
Track 18 not present in database
Track 19 not present in database
Track 20 not present in database
Track 21 not present in database
Track 22 not present in database
Track 23 not present in database
Track 24 not present in database
Track 25 not present in database
Track 26 not present in database
Track 27 not present in database
Track 28 not present in database
None of the tracks are present in the AccurateRip database
End of status report
---- CUETools DB Plugin V2.1.6
[CTDB TOCID: 88Cc5XvxqfxmAqJ154oHxbrl7Fs-] found
Submit result: already submitted
Track | CTDB Status
1 | (6/6) Accurately ripped
2 | (6/6) Accurately ripped
3 | (6/6) Accurately ripped
4 | (6/6) Accurately ripped
5 | (6/6) Accurately ripped
6 | (6/6) Accurately ripped
7 | (6/6) Accurately ripped
8 | (6/6) Accurately ripped
9 | (6/6) Accurately ripped
10 | (6/6) Accurately ripped
11 | (6/6) Accurately ripped
12 | (6/6) Accurately ripped
13 | (6/6) Accurately ripped
14 | (6/6) Accurately ripped
15 | (6/6) Accurately ripped
16 | (6/6) Accurately ripped
17 | (6/6) Accurately ripped
18 | (6/6) Accurately ripped
19 | (6/6) Accurately ripped
20 | (6/6) Accurately ripped
21 | (6/6) Accurately ripped
22 | (6/6) Accurately ripped
23 | (6/6) Accurately ripped
24 | (6/6) Accurately ripped
25 | (6/6) Accurately ripped
26 | (6/6) Accurately ripped
27 | (6/6) Accurately ripped
28 | (6/6) Accurately ripped
==== Log checksum 79AB33C4919A11055955529A9BF12A1BBCF020F8AF74BB584F3E9B6526823848 ====

Содержание индексной карты (.CUE)

REM GENRE "Baroque Era"
REM DATE 2017
REM DISCID AD10401C
REM COMMENT "ExactAudioCopy v1.3"
PERFORMER "Le Petit Trianon"
TITLE "Boismortier: Sonatas & Trios"
REM COMPOSER "Joseph Bodin de Boismortier (1689-1755)"
FILE "Le Petit Trianon - Boismortier - Sonatas & Trios.flac" WAVE
TRACK 01 AUDIO
TITLE "Sonata No. 4 in G Minor, Op. 41: I. Adagio"
PERFORMER "Le Petit Trianon"
REM COMPOSER "Joseph Bodin de Boismortier (1689-1755)"
INDEX 01 00:00:00
TRACK 02 AUDIO
TITLE "Sonata No. 4 in G Minor, Op. 41: II. Allegro"
PERFORMER "Le Petit Trianon"
REM COMPOSER "Joseph Bodin de Boismortier (1689-1755)"
INDEX 01 01:57:46
TRACK 03 AUDIO
TITLE "Sonata No. 4 in G Minor, Op. 41: III. Sarabande"
PERFORMER "Le Petit Trianon"
REM COMPOSER "Joseph Bodin de Boismortier (1689-1755)"
INDEX 01 04:06:09
TRACK 04 AUDIO
TITLE "Sonata No. 4 in G Minor, Op. 41: IV. Presto"
PERFORMER "Le Petit Trianon"
REM COMPOSER "Joseph Bodin de Boismortier (1689-1755)"
INDEX 01 05:57:41
TRACK 05 AUDIO
TITLE "Sonata No. 4 in G Minor, Op. 41: V. Minuetto"
PERFORMER "Le Petit Trianon"
REM COMPOSER "Joseph Bodin de Boismortier (1689-1755)"
INDEX 01 07:50:54
TRACK 06 AUDIO
TITLE "La Caverneuse"
PERFORMER "Paolo Corsi"
REM COMPOSER "Joseph Bodin de Boismortier (1689-1755)"
INDEX 01 10:52:59
TRACK 07 AUDIO
TITLE "Sonata No. 6 in D Major, Op. 50: I. Largo"
PERFORMER "Le Petit Trianon"
REM COMPOSER "Joseph Bodin de Boismortier (1689-1755)"
INDEX 01 14:27:23
TRACK 08 AUDIO
TITLE "Sonata No. 6 in D Major, Op. 50: II. Allegro"
PERFORMER "Le Petit Trianon"
REM COMPOSER "Joseph Bodin de Boismortier (1689-1755)"
INDEX 01 20:02:63
TRACK 09 AUDIO
TITLE "Sonata No. 6 in D Major, Op. 50: III. Larghetto"
PERFORMER "Le Petit Trianon"
REM COMPOSER "Joseph Bodin de Boismortier (1689-1755)"
INDEX 01 22:23:48
TRACK 10 AUDIO
TITLE "Sonata No. 6 in D Major, Op. 50: IV. Allegro"
PERFORMER "Le Petit Trianon"
REM COMPOSER "Joseph Bodin de Boismortier (1689-1755)"
INDEX 01 24:27:34
TRACK 11 AUDIO
TITLE "La Décharnée"
PERFORMER "Paolo Corsi"
REM COMPOSER "Joseph Bodin de Boismortier (1689-1755)"
INDEX 01 27:05:33
TRACK 12 AUDIO
TITLE "Sonata No. 3 in G Major, Op. 41: I. Allegro"
PERFORMER "Le Petit Trianon"
REM COMPOSER "Joseph Bodin de Boismortier (1689-1755)"
INDEX 01 29:26:09
TRACK 13 AUDIO
TITLE "Sonata No. 3 in G Major, Op. 41: II. Affectuoso"
PERFORMER "Le Petit Trianon"
REM COMPOSER "Joseph Bodin de Boismortier (1689-1755)"
INDEX 01 32:09:09
TRACK 14 AUDIO
TITLE "Sonata No. 3 in G Major, Op. 41: III. Vivace"
PERFORMER "Le Petit Trianon"
REM COMPOSER "Joseph Bodin de Boismortier (1689-1755)"
INDEX 01 35:16:69
TRACK 15 AUDIO
TITLE "Sonata No. 3 in G Major, Op. 41: IV. Presto"
PERFORMER "Le Petit Trianon"
REM COMPOSER "Joseph Bodin de Boismortier (1689-1755)"
INDEX 01 37:46:02
TRACK 16 AUDIO
TITLE "La Valetudinaire"
PERFORMER "Paolo Corsi"
REM COMPOSER "Joseph Bodin de Boismortier (1689-1755)"
INDEX 01 39:35:63
TRACK 17 AUDIO
TITLE "Sonata No. 2 in E Minor, Op. 37: I. Allegro"
PERFORMER "Le Petit Trianon"
REM COMPOSER "Joseph Bodin de Boismortier (1689-1755)"
INDEX 01 41:54:01
TRACK 18 AUDIO
TITLE "Sonata No. 2 in E Minor, Op. 37: II. Adagio"
PERFORMER "Le Petit Trianon"
REM COMPOSER "Joseph Bodin de Boismortier (1689-1755)"
INDEX 01 44:04:15
TRACK 19 AUDIO
TITLE "Sonata No. 2 in E Minor, Op. 37: III. Allegro"
PERFORMER "Le Petit Trianon"
REM COMPOSER "Joseph Bodin de Boismortier (1689-1755)"
INDEX 01 46:08:58
TRACK 20 AUDIO
TITLE "Sonata No. 2 in D Major, Op. 41: I. Grave"
PERFORMER "Le Petit Trianon"
REM COMPOSER "Joseph Bodin de Boismortier (1689-1755)"
INDEX 01 47:48:37
TRACK 21 AUDIO
TITLE "Sonata No. 2 in D Major, Op. 41: II. Allegro"
PERFORMER "Le Petit Trianon"
REM COMPOSER "Joseph Bodin de Boismortier (1689-1755)"
INDEX 01 50:12:17
TRACK 22 AUDIO
TITLE "Sonata No. 2 in D Major, Op. 41: III. Allegro"
PERFORMER "Le Petit Trianon"
REM COMPOSER "Joseph Bodin de Boismortier (1689-1755)"
INDEX 01 53:07:42
TRACK 23 AUDIO
TITLE "Sonata No. 2 in D Major, Op. 41: IV. Largo"
PERFORMER "Le Petit Trianon"
REM COMPOSER "Joseph Bodin de Boismortier (1689-1755)"
INDEX 01 55:59:72
TRACK 24 AUDIO
TITLE "Sonata No. 2 in D Major, Op. 41: V. Gavotta"
PERFORMER "Le Petit Trianon"
REM COMPOSER "Joseph Bodin de Boismortier (1689-1755)"
INDEX 01 57:55:72
TRACK 25 AUDIO
TITLE "La Marguillère"
PERFORMER "Paolo Corsi"
REM COMPOSER "Joseph Bodin de Boismortier (1689-1755)"
INDEX 01 59:59:29
TRACK 26 AUDIO
TITLE "Sonata No. 5 in A Minor, Op. 37: I. Vivace"
PERFORMER "Le Petit Trianon"
REM COMPOSER "Joseph Bodin de Boismortier (1689-1755)"
INDEX 01 62:57:29
TRACK 27 AUDIO
TITLE "Sonata No. 5 in A Minor, Op. 37: II. Largo"
PERFORMER "Le Petit Trianon"
REM COMPOSER "Joseph Bodin de Boismortier (1689-1755)"
INDEX 01 65:00:69
TRACK 28 AUDIO
TITLE "Sonata No. 5 in A Minor, Op. 37: III. Allegro"
PERFORMER "Le Petit Trianon"
REM COMPOSER "Joseph Bodin de Boismortier (1689-1755)"
INDEX 01 67:06:56

Доп. информация

An agreeable musician, clever, sociable, a shaper of verse, a man of wit whose sallies were greatly appreciated and whose fertile pen was guaranteed to turn out another volume of works every month, Boismortier was the perfect man of his time, courteous, cultured and able to adapt to his surroundings. In this, their first recording, Le Petit Trianon have chosen pieces from his immense body of work that felicitously blend the sonorities of the flute, violin, bassoon, cello and harpsichord.
[cybertorrent.ru].t41567.torrent 
Торрент: Зарегистрирован [ 2018-03-19 15:15 ] · 6F5932F8BF9EEECD1DCA18CFFC40BD78BD47B8A9

Скачать .torrent

Скачать

14 KB

Статус: проверено
Скачан: 0 раз
Размер: 335 MB
Профиль [ЛС]
Показать сообщения:    

Текущее время: 22-Май 23:17

Часовой пояс: UTC ± 0



Вы не можете начинать темы
Вы не можете отвечать на сообщения
Вы не можете редактировать свои сообщения
Вы не можете удалять свои сообщения
Вы не можете голосовать в опросах
Вы не можете прикреплять файлы к сообщениям
Вы можете скачивать файлы