Статистика раздачи
Размер:  520 MB   |    Зарегистрирован:  1 месяц 4 дня   |    Скачан:  0 раз

Полного источника не было: Никогда

 
   
 
 

MaX ®

Пол:
Не указан
Стаж:
2 месяца 5 дней
Сообщений:
103

A.Philidor - Marches, Fetes and Chases pour Louis XIV
Жанр: Classical orchestra
Страна-производитель диска: Made in the EU
Год издания диска: 1994
Издатель (лейбл): Virgin Veritas / Erato
Номер по каталогу: 50999 0 96344 2 8
Дата записи: 1993, 1994
Аудиокодек: FLAC
Тип рипа: image+.cue
Битрейт аудио: lossless
Продолжительность: 67'46 + 63'23 / Total Playing Time: 131’09” (01:11:09)
Источник: релизер
сайт-источник/ник/другое: Рой Моврич, подарок
Наличие сканов в содержимом раздачи: да
CD 1 : ANDRE PHILIDOR
Marches, Fêtes & Chasses pour Louis XIV
- Départ en campagne : La Marche, Bruits de guerre
- La Bataille : Louis XIV contre Guillaume d'Orange, Le Triomphe, Les Festins
- Retour à la Cour : Les Cérémonies, Les Concerts Royaux, La Chasse, Les Châteaux
- Les Ballets & Mascarades : Le Canal de Versailles, Le Mariage de la Grosse Cathos, Mascarade du Roy de la Chine (extraits), Le Carrousel
CD 2 : FRANCOIS FRANCŒUR
Symphonies pour le Festin Royal du Comte d'Artois
- Suite en sol mineur
- Suite en ré majeur
- Suite en fa majeur

Треклист

André Philidor - Marches, Fêtes and Chases pour Louis XIV, CD1

1-12 Départ en campagne
La Marche, Bruits de guerre
13-23 La Bataille
Louis XIV contre Guillaume d'Orange
Le Triomphe, Les Festins
24-38 Retour á la cour
Les Cérémonies, Les Concerts Royaux
La Chasse, Les Châteaux
39-51 Les Ballets et Mascarades
Le Canal de Versailles
Le Mariage de la Grosse Cathos
Mascarade du Roy de la Chine (extraits)
Le Carrousel

François Francœur - Symphonies pour le Festin Royal du Comte d'Artois, CD2

1-7 Suite en sol mineur
8-13 Suite en ré majeur
14-19 Suite en fa majeur

Исполнители

CD1
André Philidor (1652-1730)
Marches, Fêtes and Chases pour Louis XIV
____
CD2
François Francœur (1698-1787)
Symphonies pour le Festin Royal du Comte d'Artois
LA SYMPHONIE DU MARAIS
Hugo Reyne, direction
Recording Date/Year: 5-8 June 1993 & July 1994

Лог создания рипа

CD1

Exact Audio Copy V1.2 from 12. August 2016
EAC extraction logfile from 2. March 2018, 15:17
Hugo Reyne, La Simphonie du Marais / Marches, Fêtes & Chasses pour Louis XIV (Disc 1)
Used drive : MATSHITADVD-RAM UJ8G6 Adapter: 1 ID: 0
Read mode : Secure
Utilize accurate stream : Yes
Defeat audio cache : Yes
Make use of C2 pointers : No
Read offset correction : 103
Overread into Lead-In and Lead-Out : No
Fill up missing offset samples with silence : Yes
Delete leading and trailing silent blocks : No
Null samples used in CRC calculations : Yes
Used interface : Native Win32 interface for Win NT & 2000
Used output format : User Defined Encoder
Selected bitrate : 768 kBit/s
Quality : High
Add ID3 tag : No
Command line compressor : C:\Program Files (x86)\Exact Audio Copy\Flac\flac.exe
Additional command line options : -6 -V -T "ARTIST=%artist%" -T "TITLE=%title%" -T "ALBUM=%albumtitle%" -T "DATE=%year%" -T "TRACKNUMBER=%tracknr%" -T "GENRE=%genre%" -T "COMMENT=%comment%" -T "BAND=%albuminterpret%" -T "ALBUMARTIST=%albuminterpret%" -T "COMPOSER=%composer%" %haslyrics%--tag-from-file=LYRICS="%lyricsfile%"%haslyrics% -T "DISCNUMBER=%cdnumber%" -T "TOTALDISCS=%totalcds%" -T "TOTALTRACKS=%numtracks%" %hascover%--picture="%coverfile%"%hascover% %source% -o %dest%
TOC of the extracted CD
Track | Start | Length | Start sector | End sector
---------------------------------------------------------
1 | 0:00.00 | 0:55.70 | 0 | 4194
2 | 0:55.70 | 0:41.30 | 4195 | 7299
3 | 1:37.25 | 0:39.07 | 7300 | 10231
4 | 2:16.32 | 1:07.35 | 10232 | 15291
5 | 3:23.67 | 1:07.03 | 15292 | 20319
6 | 4:30.70 | 1:24.73 | 20320 | 26692
7 | 5:55.68 | 3:20.42 | 26693 | 41734
8 | 9:16.35 | 0:21.13 | 41735 | 43322
9 | 9:37.48 | 0:39.59 | 43323 | 46306
10 | 10:17.32 | 0:17.25 | 46307 | 47606
11 | 10:34.57 | 0:50.63 | 47607 | 51419
12 | 11:25.45 | 1:14.12 | 51420 | 56981
13 | 12:39.57 | 3:01.18 | 56982 | 70574
14 | 15:41.00 | 1:11.30 | 70575 | 75929
15 | 16:52.30 | 1:06.40 | 75930 | 80919
16 | 17:58.70 | 0:45.45 | 80920 | 84339
17 | 18:44.40 | 1:43.16 | 84340 | 92080
18 | 20:27.56 | 1:26.69 | 92081 | 98599
19 | 21:54.50 | 0:59.01 | 98600 | 103025
20 | 22:53.51 | 1:16.49 | 103026 | 108774
21 | 24:10.25 | 2:15.27 | 108775 | 118926
22 | 26:25.52 | 0:40.67 | 118927 | 121993
23 | 27:06.44 | 0:43.21 | 121994 | 125239
24 | 27:49.65 | 2:13.40 | 125240 | 135254
25 | 30:03.30 | 3:37.02 | 135255 | 151531
26 | 33:40.32 | 2:02.58 | 151532 | 160739
27 | 35:43.15 | 3:03.10 | 160740 | 174474
28 | 38:46.25 | 1:17.47 | 174475 | 180296
29 | 40:03.72 | 1:36.60 | 180297 | 187556
30 | 41:40.57 | 1:37.25 | 187557 | 194856
31 | 43:18.07 | 1:27.48 | 194857 | 201429
32 | 44:45.55 | 0:16.70 | 201430 | 202699
33 | 45:02.50 | 1:06.10 | 202700 | 207659
34 | 46:08.60 | 0:56.02 | 207660 | 211861
35 | 47:04.62 | 0:48.20 | 211862 | 215481
36 | 47:53.07 | 0:41.73 | 215482 | 218629
37 | 48:35.05 | 1:13.10 | 218630 | 224114
38 | 49:48.15 | 2:13.17 | 224115 | 234106
39 | 52:01.32 | 1:34.33 | 234107 | 241189
40 | 53:35.65 | 0:24.35 | 241190 | 243024
41 | 54:00.25 | 1:05.47 | 243025 | 247946
42 | 55:05.72 | 0:49.70 | 247947 | 251691
43 | 55:55.67 | 0:30.09 | 251692 | 253950
44 | 56:26.01 | 0:31.01 | 253951 | 256276
45 | 56:57.02 | 1:37.05 | 256277 | 263556
46 | 58:34.07 | 1:19.28 | 263557 | 269509
47 | 59:53.35 | 1:38.42 | 269510 | 276901
48 | 61:32.02 | 1:32.10 | 276902 | 283811
49 | 63:04.12 | 1:57.23 | 283812 | 292609
50 | 65:01.35 | 0:35.00 | 292610 | 295234
51 | 65:36.35 | 2:10.04 | 295235 | 304988
Range status and errors
Selected range
Filename C:\Users\Roy\Music\FRANCOEUR, PHILIDOR\CD (FLAC + CUE)\CD 1\André Philidor - Marches, Fêtes & Chasses pour Louis XIV.wav
Peak level 89.1 %
Extraction speed 4.5 X
Range quality 100.0 %
Test CRC 67B4F442
Copy CRC 67B4F442
Copy OK
No errors occurred
AccurateRip summary
Track 1 accurately ripped (confidence 1) [5786C4BA] (AR v2)
Track 2 accurately ripped (confidence 1) [D1A7F326] (AR v2)
Track 3 accurately ripped (confidence 1) [E1FA1801] (AR v2)
Track 4 accurately ripped (confidence 1) [AA6311E7] (AR v2)
Track 5 accurately ripped (confidence 1) [34BD62C9] (AR v2)
Track 6 accurately ripped (confidence 1) [27871034] (AR v2)
Track 7 accurately ripped (confidence 1) [3775096D] (AR v2)
Track 8 accurately ripped (confidence 1) [8B9E569C] (AR v2)
Track 9 accurately ripped (confidence 1) [8241FBC5] (AR v2)
Track 10 accurately ripped (confidence 1) [F5DA7FD3] (AR v2)
Track 11 accurately ripped (confidence 1) [C7760F3D] (AR v2)
Track 12 accurately ripped (confidence 1) [11590A4B] (AR v2)
Track 13 accurately ripped (confidence 1) [FCAEAE8D] (AR v2)
Track 14 accurately ripped (confidence 1) [FB8CD7CE] (AR v2)
Track 15 accurately ripped (confidence 1) [A77E68F3] (AR v2)
Track 16 accurately ripped (confidence 1) [EAFE40DC] (AR v2)
Track 17 accurately ripped (confidence 1) [C6EA2CC6] (AR v2)
Track 18 accurately ripped (confidence 1) [AE72AADE] (AR v2)
Track 19 accurately ripped (confidence 1) [B24717ED] (AR v2)
Track 20 accurately ripped (confidence 1) [D0881198] (AR v2)
Track 21 accurately ripped (confidence 1) [56D8929D] (AR v2)
Track 22 accurately ripped (confidence 1) [A4D4EBAB] (AR v2)
Track 23 accurately ripped (confidence 1) [60B0C61E] (AR v2)
Track 24 accurately ripped (confidence 1) [C36CBB9D] (AR v2)
Track 25 accurately ripped (confidence 1) [7408C10F] (AR v2)
Track 26 accurately ripped (confidence 1) [256905B7] (AR v2)
Track 27 accurately ripped (confidence 1) [5080EE13] (AR v2)
Track 28 accurately ripped (confidence 1) [B3F9B270] (AR v2)
Track 29 accurately ripped (confidence 1) [51689C03] (AR v2)
Track 30 accurately ripped (confidence 1) [4C1296F2] (AR v2)
Track 31 accurately ripped (confidence 1) [92FBCD0E] (AR v2)
Track 32 accurately ripped (confidence 1) [3032943D] (AR v2)
Track 33 accurately ripped (confidence 1) [591276E5] (AR v2)
Track 34 accurately ripped (confidence 1) [7F42FEF2] (AR v2)
Track 35 accurately ripped (confidence 1) [D18EFC51] (AR v2)
Track 36 accurately ripped (confidence 1) [1678B97B] (AR v2)
Track 37 accurately ripped (confidence 1) [967176A7] (AR v2)
Track 38 accurately ripped (confidence 1) [73EF97BA] (AR v2)
Track 39 accurately ripped (confidence 1) [943AA446] (AR v2)
Track 40 accurately ripped (confidence 1) [A2DD0180] (AR v2)
Track 41 accurately ripped (confidence 1) [E58B8A63] (AR v2)
Track 42 accurately ripped (confidence 1) [DF9673E8] (AR v2)
Track 43 accurately ripped (confidence 1) [172AA91E] (AR v2)
Track 44 accurately ripped (confidence 1) [77D6B7C6] (AR v2)
Track 45 accurately ripped (confidence 1) [61E174C7] (AR v2)
Track 46 accurately ripped (confidence 1) [22D51507] (AR v2)
Track 47 accurately ripped (confidence 1) [329DD416] (AR v2)
Track 48 accurately ripped (confidence 1) [E3214EDB] (AR v2)
Track 49 accurately ripped (confidence 1) [FE3CACB3] (AR v2)
Track 50 accurately ripped (confidence 1) [A1EC2DFF] (AR v2)
Track 51 accurately ripped (confidence 1) [71C226B1] (AR v2)
All tracks accurately ripped
End of status report
---- CUETools DB Plugin V2.1.6
[CTDB TOCID: NFanw_uubg22e1vAyrrwJieuYDA-] found
Submit result: already submitted
Track | CTDB Status
1 | (12/12) Accurately ripped
2 | (12/12) Accurately ripped
3 | (12/12) Accurately ripped
4 | (12/12) Accurately ripped
5 | (12/12) Accurately ripped
6 | (12/12) Accurately ripped
7 | (12/12) Accurately ripped
8 | (12/12) Accurately ripped
9 | (12/12) Accurately ripped
10 | (12/12) Accurately ripped
11 | (12/12) Accurately ripped
12 | (12/12) Accurately ripped
13 | (12/12) Accurately ripped
14 | (12/12) Accurately ripped
15 | (12/12) Accurately ripped
16 | (12/12) Accurately ripped
17 | (12/12) Accurately ripped
18 | (12/12) Accurately ripped
19 | (12/12) Accurately ripped
20 | (12/12) Accurately ripped
21 | (12/12) Accurately ripped
22 | (12/12) Accurately ripped
23 | (12/12) Accurately ripped
24 | (12/12) Accurately ripped
25 | (12/12) Accurately ripped
26 | (12/12) Accurately ripped
27 | (12/12) Accurately ripped
28 | (12/12) Accurately ripped
29 | (12/12) Accurately ripped
30 | (12/12) Accurately ripped
31 | (12/12) Accurately ripped
32 | (12/12) Accurately ripped
33 | (12/12) Accurately ripped
34 | (12/12) Accurately ripped
35 | (12/12) Accurately ripped
36 | (12/12) Accurately ripped
37 | (12/12) Accurately ripped
38 | (12/12) Accurately ripped
39 | (12/12) Accurately ripped
40 | (12/12) Accurately ripped
41 | (12/12) Accurately ripped
42 | (12/12) Accurately ripped
43 | (12/12) Accurately ripped
44 | (12/12) Accurately ripped
45 | (12/12) Accurately ripped
46 | (12/12) Accurately ripped
47 | (12/12) Accurately ripped
48 | (12/12) Accurately ripped
49 | (12/12) Accurately ripped
50 | (12/12) Accurately ripped
51 | (12/12) Accurately ripped
==== Log checksum 60DB4FD3189D0440C7C1317FE6F3D7C073F2064B6CE15C1EB890EB2106080547 ====

CD2

Exact Audio Copy V1.2 from 12. August 2016
EAC extraction logfile from 2. March 2018, 16:28
Hugo Reyne, La Simphonie du Marais / Symphonies pour le Festin Royal du Comte d’Artois
Used drive : MATSHITADVD-RAM UJ8G6 Adapter: 1 ID: 0
Read mode : Secure
Utilize accurate stream : Yes
Defeat audio cache : Yes
Make use of C2 pointers : No
Read offset correction : 103
Overread into Lead-In and Lead-Out : No
Fill up missing offset samples with silence : Yes
Delete leading and trailing silent blocks : No
Null samples used in CRC calculations : Yes
Used interface : Native Win32 interface for Win NT & 2000
Used output format : User Defined Encoder
Selected bitrate : 768 kBit/s
Quality : High
Add ID3 tag : No
Command line compressor : C:\Program Files (x86)\Exact Audio Copy\Flac\flac.exe
Additional command line options : -6 -V -T "ARTIST=%artist%" -T "TITLE=%title%" -T "ALBUM=%albumtitle%" -T "DATE=%year%" -T "TRACKNUMBER=%tracknr%" -T "GENRE=%genre%" -T "COMMENT=%comment%" -T "BAND=%albuminterpret%" -T "ALBUMARTIST=%albuminterpret%" -T "COMPOSER=%composer%" %haslyrics%--tag-from-file=LYRICS="%lyricsfile%"%haslyrics% -T "DISCNUMBER=%cdnumber%" -T "TOTALDISCS=%totalcds%" -T "TOTALTRACKS=%numtracks%" %hascover%--picture="%coverfile%"%hascover% %source% -o %dest%
TOC of the extracted CD
Track | Start | Length | Start sector | End sector
---------------------------------------------------------
1 | 0:00.48 | 5:47.47 | 48 | 26119
2 | 5:48.20 | 2:13.00 | 26120 | 36094
3 | 8:01.20 | 2:40.34 | 36095 | 48128
4 | 10:41.54 | 4:06.53 | 48129 | 66631
5 | 14:48.32 | 2:07.57 | 66632 | 76213
6 | 16:56.14 | 2:23.03 | 76214 | 86941
7 | 19:19.17 | 3:16.54 | 86942 | 101695
8 | 22:35.71 | 1:31.27 | 101696 | 108547
9 | 24:07.23 | 5:58.54 | 108548 | 135451
10 | 30:06.02 | 1:41.51 | 135452 | 143077
11 | 31:47.53 | 1:51.39 | 143078 | 151441
12 | 33:39.17 | 2:25.15 | 151442 | 162331
13 | 36:04.32 | 8:33.15 | 162332 | 200821
14 | 44:37.47 | 3:14.20 | 200822 | 215391
15 | 47:51.67 | 1:59.63 | 215392 | 224379
16 | 49:51.55 | 1:49.57 | 224380 | 232611
17 | 51:41.37 | 1:46.36 | 232612 | 240597
18 | 53:27.73 | 2:32.00 | 240598 | 251997
19 | 55:59.73 | 7:23.09 | 251998 | 285231
Range status and errors
Selected range
Filename C:\Users\Roy\Music\FRANCOEUR, PHILIDOR\CD (FLAC + CUE)\CD 2\François Francœur - Symphonies pour le Festin Royal du Comte d’Artois.wav
Peak level 100.0 %
Extraction speed 4.3 X
Range quality 99.9 %
Test CRC 35BBC787
Copy CRC 35BBC787
Copy OK
No errors occurred
AccurateRip summary
Track 1 cannot be verified as accurate (confidence 1) [6A9A6B01], AccurateRip returned [3CBE910F] (AR v2)
Track 2 cannot be verified as accurate (confidence 1) [97CA087D], AccurateRip returned [F046F253] (AR v2)
Track 3 cannot be verified as accurate (confidence 1) [87003171], AccurateRip returned [397C3696] (AR v2)
Track 4 cannot be verified as accurate (confidence 1) [9F757E06], AccurateRip returned [B87FEA99] (AR v2)
Track 5 cannot be verified as accurate (confidence 1) [852DD1E5], AccurateRip returned [8CE681F5] (AR v2)
Track 6 cannot be verified as accurate (confidence 1) [49CC821C], AccurateRip returned [D40E2D76] (AR v2)
Track 7 cannot be verified as accurate (confidence 1) [B939329E], AccurateRip returned [195D5005] (AR v2)
Track 8 cannot be verified as accurate (confidence 1) [4B13855E], AccurateRip returned [A288B0E4] (AR v2)
Track 9 cannot be verified as accurate (confidence 1) [3FA15839], AccurateRip returned [75CAB226] (AR v2)
Track 10 cannot be verified as accurate (confidence 1) [309CB767], AccurateRip returned [DFCB5D73] (AR v2)
Track 11 cannot be verified as accurate (confidence 1) [8FAB5E8D], AccurateRip returned [6F000891] (AR v2)
Track 12 cannot be verified as accurate (confidence 1) [C1EE3042], AccurateRip returned [EF685BA6] (AR v2)
Track 13 cannot be verified as accurate (confidence 1) [B51238FF], AccurateRip returned [8ADA1EE1] (AR v2)
Track 14 cannot be verified as accurate (confidence 1) [BA6FA03A], AccurateRip returned [D6CF8EA1] (AR v2)
Track 15 cannot be verified as accurate (confidence 1) [F42FDF11], AccurateRip returned [FAD6BD86] (AR v2)
Track 16 cannot be verified as accurate (confidence 1) [0AE16CF9], AccurateRip returned [F20EB542] (AR v2)
Track 17 cannot be verified as accurate (confidence 1) [28145AF1], AccurateRip returned [27F55E24] (AR v2)
Track 18 cannot be verified as accurate (confidence 1) [AA3114E0], AccurateRip returned [4E5EDC38] (AR v2)
Track 19 cannot be verified as accurate (confidence 1) [D91733CB], AccurateRip returned [12EC777D] (AR v2)
No tracks could be verified as accurate
You may have a different pressing from the one(s) in the database
End of status report
---- CUETools DB Plugin V2.1.6
[CTDB TOCID: loFqDgJxMgrvu72.jRNRTnr_k7Y-] found
Submit result: already submitted
Track | CTDB Status
1 | (10/10) Accurately ripped
2 | (10/10) Accurately ripped
3 | (10/10) Accurately ripped
4 | (10/10) Accurately ripped
5 | (10/10) Accurately ripped
6 | (10/10) Accurately ripped
7 | (10/10) Accurately ripped
8 | (10/10) Accurately ripped
9 | (10/10) Accurately ripped
10 | (10/10) Accurately ripped
11 | (10/10) Accurately ripped
12 | (10/10) Accurately ripped
13 | (10/10) Accurately ripped
14 | (10/10) Accurately ripped
15 | (10/10) Accurately ripped
16 | (10/10) Accurately ripped
17 | (10/10) Accurately ripped
18 | (10/10) Accurately ripped
19 | (10/10) Accurately ripped
==== Log checksum BE6A558998193756FE1F484ABA38B18D9B3A49FFE22F2D51C273466F717968BF ====

Содержание индексной карты (.CUE)

CD1

REM DATE 1994
REM DISCID F90FE233
REM COMMENT "ExactAudioCopy v1.2"
CATALOG 5099909634527
PERFORMER "Hugo Reyne; La Simphonie du Marais"
TITLE "Marches, Fêtes & Chasses pour Louis XIV (Disc 1)"
FILE "André Philidor - Marches, Fêtes & Chasses pour Louis XIV.flac" WAVE
TRACK 01 AUDIO
TITLE "Départ en campagne; La Marche - La Générale de la garde française"
PERFORMER "Hugo Reyne, La Simphonie du Marais"
ISRC FRQ999400066
INDEX 01 00:00:00
TRACK 02 AUDIO
TITLE "Départ en campagne; La Marche - L’Assemblée"
PERFORMER "Hugo Reyne, La Simphonie du Marais"
ISRC FRQ999400067
INDEX 00 00:55:67
INDEX 01 00:55:70
TRACK 03 AUDIO
TITLE "Départ en campagne; La Marche - L’Ordonnance pur le fifre"
PERFORMER "Hugo Reyne, La Simphonie du Marais"
ISRC FRQ999400068
INDEX 01 01:37:25
TRACK 04 AUDIO
TITLE "Départ en campagne; La Marche - La Marche française"
PERFORMER "Hugo Reyne, La Simphonie du Marais"
ISRC FRQ999400069
INDEX 00 02:16:20
INDEX 01 02:16:32
TRACK 05 AUDIO
TITLE "Départ en campagne; La Marche - La Descente des armes [de la marche française]"
PERFORMER "Hugo Reyne, La Simphonie du Marais"
ISRC FRQ999400070
INDEX 00 03:23:62
INDEX 01 03:23:67
TRACK 06 AUDIO
TITLE "Départ en campagne; La Marche - La Marche des Mousquetaires"
PERFORMER "Hugo Reyne, La Simphonie du Marais"
ISRC FRQ999400071
INDEX 00 04:30:66
INDEX 01 04:30:70
TRACK 07 AUDIO
TITLE "Départ en campagne; La Marche - Les Folies d’Espagne"
PERFORMER "Hugo Reyne, La Simphonie du Marais"
ISRC FRQ999400072
INDEX 01 05:55:68
TRACK 08 AUDIO
TITLE "Départ en campagne; Bruits de guerre - Préludes pour le bruit de guerre"
PERFORMER "Hugo Reyne, La Simphonie du Marais"
ISRC FRQ999400073
INDEX 01 09:16:35
TRACK 09 AUDIO
TITLE "Départ en campagne; Bruits de guerre - Appels du boute-selle"
PERFORMER "Hugo Reyne, La Simphonie du Marais"
ISRC FRQ999400074
INDEX 01 09:37:48
TRACK 10 AUDIO
TITLE "Départ en campagne; Bruits de guerre - A cheval"
PERFORMER "Hugo Reyne, La Simphonie du Marais"
ISRC FRQ999400075
INDEX 01 10:17:32
TRACK 11 AUDIO
TITLE "Départ en campagne; Bruits de guerre - La Marche Royale"
PERFORMER "Hugo Reyne, La Simphonie du Marais"
ISRC FRQ999400076
INDEX 00 10:34:45
INDEX 01 10:34:57
TRACK 12 AUDIO
TITLE "Départ en campagne; Bruits de guerre - Batterie de timbales"
PERFORMER "Hugo Reyne, La Simphonie du Marais"
ISRC FRQ999400077
INDEX 01 11:25:45
TRACK 13 AUDIO
TITLE "La Bataille : Louis XIV contre Guillaume d’Orange - La Marche du Prince d’Orange [Lilliburlero]"
PERFORMER "Hugo Reyne, La Simphonie du Marais"
ISRC FRQ999400078
INDEX 00 12:39:45
INDEX 01 12:39:57
TRACK 14 AUDIO
TITLE "La Bataille : Louis XIV contre Guillaume d’Orange - La Victoire"
PERFORMER "Hugo Reyne, La Simphonie du Marais"
ISRC FRQ999400079
INDEX 01 15:41:00
TRACK 15 AUDIO
TITLE "La Bataille : Louis XIV contre Guillaume d’Orange - La Marche hollandaise"
PERFORMER "Hugo Reyne, La Simphonie du Marais"
ISRC FRQ999400080
INDEX 01 16:52:30
TRACK 16 AUDIO
TITLE "La Bataille : Louis XIV contre Guillaume d’Orange - La Marche liégeoise"
PERFORMER "Hugo Reyne, La Simphonie du Marais"
ISRC FRQ999400081
INDEX 00 17:58:68
INDEX 01 17:58:70
TRACK 17 AUDIO
TITLE "La Bataille : Louis XIV contre Guillaume d’Orange; Le Triomphe - Ouverture"
PERFORMER "Hugo Reyne, La Simphonie du Marais"
ISRC FRQ999400082
INDEX 00 18:43:46
INDEX 01 18:44:40
TRACK 18 AUDIO
TITLE "La Bataille : Louis XIV contre Guillaume d’Orange; Le Triomphe - 1er Air"
PERFORMER "Hugo Reyne, La Simphonie du Marais"
ISRC FRQ999400083
INDEX 00 20:27:10
INDEX 01 20:27:56
TRACK 19 AUDIO
TITLE "La Bataille : Louis XIV contre Guillaume d’Orange; Le Triomphe - 2d Air des guerriers"
PERFORMER "Hugo Reyne, La Simphonie du Marais"
ISRC FRQ999400084
INDEX 00 21:54:38
INDEX 01 21:54:50
TRACK 20 AUDIO
TITLE "La Bataille : Louis XIV contre Guillaume d’Orange; Le Triomphe - Menuet"
PERFORMER "Hugo Reyne, La Simphonie du Marais"
ISRC FRQ999400085
INDEX 01 22:53:51
TRACK 21 AUDIO
TITLE "La Bataille : Louis XIV contre Guillaume d’Orange; Le Triomphe - Marche de Triomphe"
PERFORMER "Hugo Reyne, La Simphonie du Marais"
ISRC FRQ999400086
INDEX 00 24:10:13
INDEX 01 24:10:25
TRACK 22 AUDIO
TITLE "La Bataille : Louis XIV contre Guillaume d’Orange; Les Festins - Gavotte des Festins"
PERFORMER "Hugo Reyne, La Simphonie du Marais"
ISRC FRQ999400087
INDEX 00 26:25:51
INDEX 01 26:25:52
TRACK 23 AUDIO
TITLE "La Bataille : Louis XIV contre Guillaume d’Orange; Les Festins - Bourrée de Bacchus"
PERFORMER "Hugo Reyne, La Simphonie du Marais"
ISRC FRQ999400088
INDEX 01 27:06:44
TRACK 24 AUDIO
TITLE "Retour à la cour; Les Cérémonies - Le reposoir de la Fête-Dieu"
PERFORMER "Hugo Reyne, La Simphonie du Marais"
ISRC FRQ999400089
INDEX 00 27:46:11
INDEX 01 27:49:65
TRACK 25 AUDIO
TITLE "Retour à la cour; Les Cérémonies - Marche funèbre pour le Convoi du Roy"
PERFORMER "Hugo Reyne, La Simphonie du Marais"
ISRC FRQ999400090
INDEX 01 30:03:30
TRACK 26 AUDIO
TITLE "Retour à la cour; Les Cérémonies - Marche des Pompes Funèbres pour les grandes cérémonies"
PERFORMER "Hugo Reyne, La Simphonie du Marais"
ISRC FRQ999400091
INDEX 01 33:40:32
TRACK 27 AUDIO
TITLE "Retour à la cour; Les Concerts Royaux - Sonate pour la flûte à bec du “Premier Livre de pièces par Anne Philidor fils aîné, 1712” – Lentement"
PERFORMER "Hugo Reyne, Vincent Dumestre, Philippe Pierlot"
ISRC FRQ999400092
INDEX 00 35:41:31
INDEX 01 35:43:15
TRACK 28 AUDIO
TITLE "Retour à la cour; Les Concerts Royaux - Sonate pour la flûte à bec du “Premier Livre de pièces par Anne Philidor fils aîné, 1712” – Fugue"
PERFORMER "Hugo Reyne, Vincent Dumestre, Philippe Pierlot"
ISRC FRQ999400093
INDEX 01 38:46:25
TRACK 29 AUDIO
TITLE "Retour à la cour; Les Concerts Royaux - Sonate pour la flûte à bec du “Premier Livre de pièces par Anne Philidor fils aîné, 1712” – Courante"
PERFORMER "Hugo Reyne, Vincent Dumestre, Philippe Pierlot"
ISRC FRQ999400094
INDEX 01 40:03:72
TRACK 30 AUDIO
TITLE "Retour à la cour; Les Concerts Royaux - Sonate pour la flûte à bec du “Premier Livre de pièces par Anne Philidor fils aîné, 1712” – Les notes égales et détachées"
PERFORMER "Hugo Reyne, Vincent Dumestre, Philippe Pierlot"
ISRC FRQ999400095
INDEX 00 41:40:45
INDEX 01 41:40:57
TRACK 31 AUDIO
TITLE "Retour à la cour; Les Concerts Royaux - Sonate pour la flûte à bec du “Premier Livre de pièces par Anne Philidor fils aîné, 1712” – Fugue"
PERFORMER "Hugo Reyne, Vincent Dumestre, Philippe Pierlot"
ISRC FRQ999400096
INDEX 01 43:18:07
TRACK 32 AUDIO
TITLE "Retour à la cour; La Chasse - Appels de chasse"
PERFORMER "Hugo Reyne, La Simphonie du Marais"
ISRC FRQ999400097
INDEX 01 44:45:55
TRACK 33 AUDIO
TITLE "Retour à la cour; La Chasse - Autres appels de chasse"
PERFORMER "Hugo Reyne, La Simphonie du Marais"
ISRC FRQ999400098
INDEX 00 44:56:11
INDEX 01 45:02:50
TRACK 34 AUDIO
TITLE "Retour à la cour; La Chasse - La Charviliaque"
PERFORMER "Hugo Reyne, La Simphonie du Marais"
ISRC FRQ999400099
INDEX 01 46:08:60
TRACK 35 AUDIO
TITLE "Retour à la cour; Les Châteaux - La Canon de Versailles à 5 parties"
PERFORMER "Hugo Reyne, La Simphonie du Marais"
ISRC FRQ999400100
INDEX 00 47:03:19
INDEX 01 47:04:62
TRACK 36 AUDIO
TITLE "Retour à la cour; Les Châteaux - La Vaux-le-Vicomte"
PERFORMER "Hugo Reyne, La Simphonie du Marais"
ISRC FRQ999400101
INDEX 00 47:52:70
INDEX 01 47:53:07
TRACK 37 AUDIO
TITLE "Retour à la cour; Les Châteaux - Menuet de l’Orangerie"
PERFORMER "Hugo Reyne, La Simphonie du Marais"
ISRC FRQ999400102
INDEX 01 48:35:05
TRACK 38 AUDIO
TITLE "Retour à la cour; Les Châteaux - Chaconne du Palais Royal"
PERFORMER "Hugo Reyne, La Simphonie du Marais"
ISRC FRQ999400103
INDEX 01 49:48:15
TRACK 39 AUDIO
TITLE "Les Ballets & Mascarades; Le Canal de Versailles [extraits] - Ouverture"
PERFORMER "Hugo Reyne, La Simphonie du Marais"
ISRC FRQ999400104
INDEX 01 52:01:32
TRACK 40 AUDIO
TITLE "Les Ballets & Mascarades; Le Canal de Versailles [extraits] - Symphonie pour Neptune"
PERFORMER "Hugo Reyne, La Simphonie du Marais"
ISRC FRQ999400105
INDEX 00 53:35:53
INDEX 01 53:35:65
TRACK 41 AUDIO
TITLE "Les Ballets & Mascarades; Le Canal de Versailles [extraits] - Air des Tritons"
PERFORMER "Hugo Reyne, La Simphonie du Marais"
ISRC FRQ999400106
INDEX 01 54:00:25
TRACK 42 AUDIO
TITLE "Les Ballets & Mascarades; Le Mariage de la Grosse Cathos ou La Noce de la Couture [extraits] - La Pavane"
PERFORMER "Hugo Reyne, La Simphonie du Marais"
ISRC FRQ999400107
INDEX 01 55:05:72
TRACK 43 AUDIO
TITLE "Les Ballets & Mascarades; Le Mariage de la Grosse Cathos ou La Noce de la Couture [extraits] - Rigaudon pour les filles de la Noce"
PERFORMER "Hugo Reyne, La Simphonie du Marais"
ISRC FRQ999400108
INDEX 00 55:55:55
INDEX 01 55:55:67
TRACK 44 AUDIO
TITLE "Les Ballets & Mascarades; Le Mariage de la Grosse Cathos ou La Noce de la Couture [extraits] - Passepied"
PERFORMER "Hugo Reyne, La Simphonie du Marais"
ISRC FRQ999400109
INDEX 01 56:26:01
TRACK 45 AUDIO
TITLE "Les Ballets & Mascarades; Le Mariage de la Grosse Cathos ou La Noce de la Couture [extraits] - Air des Ivrognes"
PERFORMER "Hugo Reyne, La Simphonie du Marais"
ISRC FRQ999400110
INDEX 00 56:57:01
INDEX 01 56:57:02
TRACK 46 AUDIO
TITLE "Les Ballets & Mascarades; Le Mariage de la Grosse Cathos ou La Noce de la Couture [extraits] - Charivari"
PERFORMER "Hugo Reyne, La Simphonie du Marais"
ISRC FRQ999400111
INDEX 00 58:33:70
INDEX 01 58:34:07
TRACK 47 AUDIO
TITLE "Les Ballets & Mascarades; Mascarade du Roy de la Chine [extraits] - Marche du Roy de la Chine"
PERFORMER "Hugo Reyne, La Simphonie du Marais"
ISRC FRQ999400112
INDEX 00 59:50:70
INDEX 01 59:53:35
TRACK 48 AUDIO
TITLE "Les Ballets & Mascarades; Mascarade du Roy de la Chine [extraits] - Entrée d’une Pagode"
PERFORMER "Hugo Reyne, La Simphonie du Marais"
ISRC FRQ999400113
INDEX 01 61:32:02
TRACK 49 AUDIO
TITLE "Les Ballets & Mascarades; Mascarade du Roy de la Chine [extraits] - Chaconne"
PERFORMER "Hugo Reyne, La Simphonie du Marais"
ISRC FRQ999400114
INDEX 00 63:04:00
INDEX 01 63:04:12
TRACK 50 AUDIO
TITLE "Les Ballets & Mascarades; Le Carrousel - Canon du Carrousel à 6 parties"
PERFORMER "Hugo Reyne, La Simphonie du Marais"
ISRC FRQ999400115
INDEX 00 64:59:65
INDEX 01 65:01:35
TRACK 51 AUDIO
TITLE "Les Ballets & Mascarades; Le Carrousel - Marche à 4 Timbales"
PERFORMER "Hugo Reyne, La Simphonie du Marais"
ISRC FRQ999400116
INDEX 01 65:36:35

CD2

REM DATE 1993
REM DISCID 0A0EDB13
REM COMMENT "ExactAudioCopy v1.2"
CATALOG 5099909634725
PERFORMER "Hugo Reyne; La Simphonie du Marais"
TITLE "Symphonies pour le Festin Royal du Comte d’Artois"
FILE "François Francœur - Symphonies pour le Festin Royal du Comte d’Artois.flac" WAVE
TRACK 01 AUDIO
TITLE "Suite en sol mineur - Ouverture"
PERFORMER "Hugo Reyne, La Simphonie du Marais"
ISRC FRQ999300052
FLAGS DCP
INDEX 00 00:00:00
INDEX 01 00:00:48
TRACK 02 AUDIO
TITLE "Suite en sol mineur - Air gracieux"
PERFORMER "Hugo Reyne, La Simphonie du Marais"
ISRC FRQ999300053
FLAGS DCP
INDEX 01 05:48:20
TRACK 03 AUDIO
TITLE "Suite en sol mineur - Air vif"
PERFORMER "Hugo Reyne, La Simphonie du Marais"
ISRC FRQ999300054
FLAGS DCP
INDEX 01 08:01:20
TRACK 04 AUDIO
TITLE "Suite en sol mineur - Gavottes 1 & 2"
PERFORMER "Hugo Reyne, La Simphonie du Marais"
ISRC FRQ999300055
FLAGS DCP
INDEX 01 10:41:54
TRACK 05 AUDIO
TITLE "Suite en sol mineur - Air marqué"
PERFORMER "Hugo Reyne, La Simphonie du Marais"
ISRC FRQ999300056
FLAGS DCP
INDEX 01 14:48:32
TRACK 06 AUDIO
TITLE "Suite en sol mineur - Air vif"
PERFORMER "Hugo Reyne, La Simphonie du Marais"
ISRC FRQ999300057
FLAGS DCP
INDEX 01 16:56:14
TRACK 07 AUDIO
TITLE "Suite en sol mineur - Contredanse"
PERFORMER "Hugo Reyne, La Simphonie du Marais"
ISRC FRQ999300058
FLAGS DCP
INDEX 01 19:19:17
TRACK 08 AUDIO
TITLE "Suite en ré majeur - Air en rondeau"
PERFORMER "Hugo Reyne, La Simphonie du Marais"
ISRC FRQ999300059
FLAGS DCP
INDEX 00 22:32:19
INDEX 01 22:35:71
TRACK 09 AUDIO
TITLE "Suite en ré majeur - Rondeaux 1 & 2"
PERFORMER "Hugo Reyne, La Simphonie du Marais"
ISRC FRQ999300060
FLAGS DCP
INDEX 01 24:07:23
TRACK 10 AUDIO
TITLE "Suite en ré majeur - Rondeau gai"
PERFORMER "Hugo Reyne, La Simphonie du Marais"
ISRC FRQ999300061
FLAGS DCP
INDEX 01 30:06:02
TRACK 11 AUDIO
TITLE "Suite en ré majeur - Air tendre"
PERFORMER "Hugo Reyne, La Simphonie du Marais"
ISRC FRQ999300062
FLAGS DCP
INDEX 01 31:47:53
TRACK 12 AUDIO
TITLE "Suite en ré majeur - Menuets 1 (François Rebel) & 2"
PERFORMER "Hugo Reyne, La Simphonie du Marais"
ISRC FRQ999300063
FLAGS DCP
INDEX 01 33:39:17
TRACK 13 AUDIO
TITLE "Suite en ré majeur - Chaconne"
PERFORMER "Hugo Reyne, La Simphonie du Marais"
ISRC FRQ999300064
FLAGS DCP
INDEX 01 36:04:32
TRACK 14 AUDIO
TITLE "Suite en fa majeur - Ouverture"
PERFORMER "Hugo Reyne, La Simphonie du Marais"
ISRC FRQ999300065
FLAGS DCP
INDEX 01 44:37:47
TRACK 15 AUDIO
TITLE "Suite en fa majeur - Air grave – gai"
PERFORMER "Hugo Reyne, La Simphonie du Marais"
ISRC FRQ999300066
FLAGS DCP
INDEX 01 47:51:67
TRACK 16 AUDIO
TITLE "Suite en fa majeur - Marche des américains"
PERFORMER "Hugo Reyne, La Simphonie du Marais"
ISRC FRQ999300067
FLAGS DCP
INDEX 01 49:51:55
TRACK 17 AUDIO
TITLE "Suite en fa majeur - Air des furies"
PERFORMER "Hugo Reyne, La Simphonie du Marais"
ISRC FRQ999300068
FLAGS DCP
INDEX 01 51:41:37
TRACK 18 AUDIO
TITLE "Suite en fa majeur - Air pour la vieillesse"
PERFORMER "Hugo Reyne, La Simphonie du Marais"
ISRC FRQ999300069
FLAGS DCP
INDEX 01 53:27:73
TRACK 19 AUDIO
TITLE "Suite en fa majeur - Chaconne"
PERFORMER "Hugo Reyne, La Simphonie du Marais"
ISRC FRQ999300070
FLAGS DCP
INDEX 01 55:59:73
[cybertorrent.ru].t41568.torrent 
Торрент: Зарегистрирован [ 2018-03-19 15:15 ] · CBB1E9AAC89922EC2138301980BB8C79CBC95906

Скачать .torrent

Скачать

13 KB

Статус: проверено
Скачан: 0 раз
Размер: 520 MB
Профиль [ЛС]
Показать сообщения:    

Текущее время: 24-Апр 04:47

Часовой пояс: UTC ± 0



Вы не можете начинать темы
Вы не можете отвечать на сообщения
Вы не можете редактировать свои сообщения
Вы не можете удалять свои сообщения
Вы не можете голосовать в опросах
Вы не можете прикреплять файлы к сообщениям
Вы можете скачивать файлы