Статистика раздачи
Размер:  510 MB   |    Зарегистрирован:  1 месяц 4 дня   |    Скачан:  0 раз

Полного источника не было: Никогда

 
   
 
 

android ®

Пол:
Не указан
Стаж:
2 месяца 9 дней
Сообщений:
221

Britney Spears / Dance Hits & Remixes
Жанр: Pop
Носитель: CD
Страна-производитель диска (релиза): Россия
Год издания: 2001
Страна исполнителя (группы): USA
Аудиокодек: FLAC (*.flac)
Тип рипа: image+.cue
Битрейт аудио: lossless
Продолжительность: 1:13:48
Источник (релизер): Диск из личной коллекции
Наличие сканов в содержимом раздачи: нет
Треклист:
01 Don't Let Me Be The Last To Know (Hex Hector Radio Remix)
02 Stronger (Miguel Migs Vocal Remix)
03 Lucky (Jack D Elliot Radio Remix)
04 ...Baby One More Time (Ospina's Club Mix)
05 Oops!.. I Did It Again (Ospina's Deep Club Mix)
06 (You Drive Me) Crazy (Stop Remix)
07 The Beat Goes On (Eric Faster Mix)
08 Soda Pop (Eric Faster Mix)
09 I Will Be There
10 Oops!.. I Did It Again (Rodney Jerkins Remix)
11 Deep In My Heart
12 Sometimes (Video Mix)
13 Oops!.. I Did It Again (Oops! We Remixed Again)
14 ...Baby One More Time (Platinum Vocal Remix)
15 Stronger (Macquayle Mix Show Remix)
16 Thinkin' About You (Eric Faster Mix)
17 Strong-E-Remix (Pimp Juice's Mix)

Лог создания рипа

EZ CD Audio Converter 7.0.0 [64-bit]
Log creation date: Mar 3 2018 22:57
Device: [ E: ] MATSHITA DVD-RAM UJ8E2 S 1.00
Profile : Disc Image
Read mode : Normal
C2 pointers : Disabled
AccurateCDDA : Enabled
Software synchronization : Disabled
Drive read cache : Enabled
Verify audio : Disabled
Drive spin-up : Disabled
Sample offset : 0
Calculate ReplayGain : Enabled
Output format : .flac | Free Lossless Audio Codec
Encoder : FLAC 1.3.2
Bit depth : Auto
Channels : Auto
Sample rate : Auto
Compression level : 8
Track Start Length Start sector End sector
-------------------------------------------------------------
[X] 01 00:00.00 04:04.30 0 18329
[X] 02 04:04.30 03:44.32 18330 35161
[X] 03 07:48.62 03:30.56 35162 50967
[X] 04 11:19.43 05:46.66 50968 76983
[X] 05 17:06.34 06:08.40 76984 104623
[X] 06 23:14.74 03:19.47 104624 119595
[X] 07 26:34.46 03:45.40 119596 136510
[X] 08 30:20.11 03:22.57 136511 151717
[X] 09 33:42.68 03:55.63 151718 169405
[X] 10 37:38.56 03:09.13 169406 183593
[X] 11 40:47.69 03:38.19 183594 199962
[X] 12 44:26.13 04:07.36 199963 218523
[X] 13 48:33.49 03:56.64 218524 236287
[X] 14 52:30.38 08:11.32 236288 273144
[X] 15 60:41.70 05:22.53 273145 297347
[X] 16 66:04.48 03:35.18 297348 313490
[X] 17 69:39.66 04:08.18 313491 332108
-------------------------------------------------------------
Summary
-------
17 total tracks
17 copied successfully
0 copied with errors
0 failed
Track Status CRC Filename
-----------------------------------------
1 Success 259B6DCA "Britney Spears - Dance Hits & Remixes (2001).flac"
2 Success EFC60133 "Britney Spears - Dance Hits & Remixes (2001).flac"
3 Success 13BF271A "Britney Spears - Dance Hits & Remixes (2001).flac"
4 Success 5DAB588B "Britney Spears - Dance Hits & Remixes (2001).flac"
5 Success 427D7949 "Britney Spears - Dance Hits & Remixes (2001).flac"
6 Success AA190101 "Britney Spears - Dance Hits & Remixes (2001).flac"
7 Success F18F0D9F "Britney Spears - Dance Hits & Remixes (2001).flac"
8 Success 57CDB2FE "Britney Spears - Dance Hits & Remixes (2001).flac"
9 Success BA1E6F95 "Britney Spears - Dance Hits & Remixes (2001).flac"
10 Success 95BB2D4C "Britney Spears - Dance Hits & Remixes (2001).flac"
11 Success 51A32211 "Britney Spears - Dance Hits & Remixes (2001).flac"
12 Success 6EE77ACA "Britney Spears - Dance Hits & Remixes (2001).flac"
13 Success AF7881DE "Britney Spears - Dance Hits & Remixes (2001).flac"
14 Success D7F3CD81 "Britney Spears - Dance Hits & Remixes (2001).flac"
15 Success F03A1610 "Britney Spears - Dance Hits & Remixes (2001).flac"
16 Success A1077EA5 "Britney Spears - Dance Hits & Remixes (2001).flac"
17 Success 6E5A7F6D "Britney Spears - Dance Hits & Remixes (2001).flac"
Details
-------
Track 1
Filename "Britney Spears - Dance Hits & Remixes (2001).flac"
CRC : 259B6DCA
Finished successfully
Track 2
Filename "Britney Spears - Dance Hits & Remixes (2001).flac"
CRC : EFC60133
Finished successfully
Track 3
Filename "Britney Spears - Dance Hits & Remixes (2001).flac"
CRC : 13BF271A
Finished successfully
Track 4
Filename "Britney Spears - Dance Hits & Remixes (2001).flac"
CRC : 5DAB588B
Finished successfully
Track 5
Filename "Britney Spears - Dance Hits & Remixes (2001).flac"
CRC : 427D7949
Finished successfully
Track 6
Filename "Britney Spears - Dance Hits & Remixes (2001).flac"
CRC : AA190101
Finished successfully
Track 7
Filename "Britney Spears - Dance Hits & Remixes (2001).flac"
CRC : F18F0D9F
Finished successfully
Track 8
Filename "Britney Spears - Dance Hits & Remixes (2001).flac"
CRC : 57CDB2FE
Finished successfully
Track 9
Filename "Britney Spears - Dance Hits & Remixes (2001).flac"
CRC : BA1E6F95
Finished successfully
Track 10
Filename "Britney Spears - Dance Hits & Remixes (2001).flac"
CRC : 95BB2D4C
Finished successfully
Track 11
Filename "Britney Spears - Dance Hits & Remixes (2001).flac"
CRC : 51A32211
Finished successfully
Track 12
Filename "Britney Spears - Dance Hits & Remixes (2001).flac"
CRC : 6EE77ACA
Finished successfully
Track 13
Filename "Britney Spears - Dance Hits & Remixes (2001).flac"
CRC : AF7881DE
Finished successfully
Track 14
Filename "Britney Spears - Dance Hits & Remixes (2001).flac"
CRC : D7F3CD81
Finished successfully
Track 15
Filename "Britney Spears - Dance Hits & Remixes (2001).flac"
CRC : F03A1610
Finished successfully
Track 16
Filename "Britney Spears - Dance Hits & Remixes (2001).flac"
CRC : A1077EA5
Finished successfully
Track 17
Filename "Britney Spears - Dance Hits & Remixes (2001).flac"
CRC : 6E5A7F6D
Finished successfully

Содержание индексной карты (.CUE)

PERFORMER "Britney Spears"
TITLE "Dance Hits & Remixes"
REM DATE "2001"
REM GENRE "Pop"
REM COMMENT "EZ CD Audio Converter 7.0.0 [64-bit]"
REM REPLAYGAIN_ALBUM_GAIN -8.30 dB
REM REPLAYGAIN_ALBUM_PEAK 0.999969
FILE "Britney Spears - Dance Hits & Remixes (2001).flac" WAVE
TRACK 01 AUDIO
REM REPLAYGAIN_TRACK_GAIN -9.89 dB
REM REPLAYGAIN_TRACK_PEAK 0.976746
TITLE "Don't Let Me Be The Last To Know (Hex Hector Radio Remix)"
INDEX 01 00:00:00
TRACK 02 AUDIO
REM REPLAYGAIN_TRACK_GAIN -7.68 dB
REM REPLAYGAIN_TRACK_PEAK 0.993805
TITLE "Stronger (Miguel Migs Vocal Remix)"
INDEX 01 04:04:30
TRACK 03 AUDIO
REM REPLAYGAIN_TRACK_GAIN -9.47 dB
REM REPLAYGAIN_TRACK_PEAK 0.998993
TITLE "Lucky (Jack D Elliot Radio Remix)"
INDEX 01 07:48:62
TRACK 04 AUDIO
REM REPLAYGAIN_TRACK_GAIN -8.48 dB
REM REPLAYGAIN_TRACK_PEAK 0.988525
TITLE "...Baby One More Time (Ospina's Club Mix)"
INDEX 01 11:19:43
TRACK 05 AUDIO
REM REPLAYGAIN_TRACK_GAIN -7.13 dB
REM REPLAYGAIN_TRACK_PEAK 0.976318
TITLE "Oops!.. I Did It Again (Ospina's Deep Club Mix)"
INDEX 01 17:06:34
TRACK 06 AUDIO
REM REPLAYGAIN_TRACK_GAIN -9.85 dB
REM REPLAYGAIN_TRACK_PEAK 0.999969
TITLE "(You Drive Me) Crazy (Stop Remix)"
INDEX 01 23:14:74
TRACK 07 AUDIO
REM REPLAYGAIN_TRACK_GAIN -6.86 dB
REM REPLAYGAIN_TRACK_PEAK 0.999969
TITLE "The Beat Goes On (Eric Faster Mix)"
INDEX 01 26:34:46
TRACK 08 AUDIO
REM REPLAYGAIN_TRACK_GAIN -7.07 dB
REM REPLAYGAIN_TRACK_PEAK 0.999969
TITLE "Soda Pop (Eric Faster Mix)"
INDEX 01 30:20:11
TRACK 09 AUDIO
REM REPLAYGAIN_TRACK_GAIN -8.80 dB
REM REPLAYGAIN_TRACK_PEAK 0.999969
TITLE "I Will Be There"
INDEX 01 33:42:68
TRACK 10 AUDIO
REM REPLAYGAIN_TRACK_GAIN -8.32 dB
REM REPLAYGAIN_TRACK_PEAK 0.965240
TITLE "Oops!.. I Did It Again (Rodney Jerkins Remix)"
INDEX 01 37:38:56
TRACK 11 AUDIO
REM REPLAYGAIN_TRACK_GAIN -9.21 dB
REM REPLAYGAIN_TRACK_PEAK 0.999969
TITLE "Deep In My Heart"
INDEX 01 40:47:69
TRACK 12 AUDIO
REM REPLAYGAIN_TRACK_GAIN -7.96 dB
REM REPLAYGAIN_TRACK_PEAK 0.999969
TITLE "Sometimes (Video Mix)"
INDEX 01 44:26:13
TRACK 13 AUDIO
REM REPLAYGAIN_TRACK_GAIN -8.04 dB
REM REPLAYGAIN_TRACK_PEAK 0.976318
TITLE "Oops!.. I Did It Again (Oops! We Remixed Again)"
INDEX 01 48:33:49
TRACK 14 AUDIO
REM REPLAYGAIN_TRACK_GAIN -6.51 dB
REM REPLAYGAIN_TRACK_PEAK 0.988525
TITLE "...Baby One More Time (Platinum Vocal Remix)"
INDEX 01 52:30:38
TRACK 15 AUDIO
REM REPLAYGAIN_TRACK_GAIN -9.01 dB
REM REPLAYGAIN_TRACK_PEAK 0.993744
TITLE "Stronger (Macquayle Mix Show Remix)"
INDEX 01 60:41:70
TRACK 16 AUDIO
REM REPLAYGAIN_TRACK_GAIN -9.19 dB
REM REPLAYGAIN_TRACK_PEAK 0.999969
TITLE "Thinkin' About You (Eric Faster Mix)"
INDEX 01 66:04:48
TRACK 17 AUDIO
REM REPLAYGAIN_TRACK_GAIN -7.28 dB
REM REPLAYGAIN_TRACK_PEAK 0.995483
TITLE "Strong-E-Remix (Pimp Juice's Mix)"
INDEX 01 69:39:66

Лог проверки качества Audiochecker

Started at: ñóááîòà, 10. 03. 2018. - 18:16.23
1 file found
1 -===- d:\Music_Tracker\Britney Spears - Dance Hits & Remixes (2001) [FLAC]\Britney Spears - Dance Hits & Remixes (2001).flac
Extracted successfully
Conclusion: this track is CDDA with probability 100%
Tempfile successfully deleted.
Finished at: ñóááîòà, 10. 03. 2018. - 18:19.34 (operation time: 0:03.10)
[cybertorrent.ru].t41569.torrent 
Торрент: Зарегистрирован [ 2018-03-19 15:15 ] · 37A5AC697A194E24E2A5B61FF62DB93C8B6BC8D8

Скачать .torrent

Скачать

21 KB

Статус: проверено
Скачан: 0 раз
Размер: 510 MB
Профиль [ЛС]
Показать сообщения:    

Текущее время: 24-Апр 14:17

Часовой пояс: UTC ± 0



Вы не можете начинать темы
Вы не можете отвечать на сообщения
Вы не можете редактировать свои сообщения
Вы не можете удалять свои сообщения
Вы не можете голосовать в опросах
Вы не можете прикреплять файлы к сообщениям
Вы можете скачивать файлы